76
PUNTOS
Calificar
CALIFICA
Calificar
Califica y/o escribe un comentario sobre la película.
Comentarios en el foroFORO

The Taking of Pelham One Two Three (1975)

En el Metro de Nueva York, cerca de la estación de Pelham, un delincuente armado ha secuestrado un tren, amenazando con matar un rehén cada minuto si no le pagan un millón de dólares. Obligado a entretener al criminal hasta que su petición se cumpla o se realice una operación de rescate, el jefe de policía Garber debe usar todo su ingenio para embaucar a uno de los más crueles y astutos criminales.
Director Joseph Sargent
Actores Walter Matthau, Robert Shaw, Martin Balsam
Duración 104 min
País United States
Streaming (Servicio externo)
Grupo: AMIABLE
Versión: BDRip x264 1080p
Tamaño: 7.7 GB
	
Video
ID : 1
Format : AVC
Format/Info : Advanced Video Codec
Format profile : [email protected]
Format settings : CABAC / 5 Ref Frames
Format settings, CABAC : Yes
Format settings, Reference frames : 5 frames
Codec ID : V_MPEG4/ISO/AVC
Duration : 1 h 44 min
Bit rate : 8 986 kb/s
Width : 1 920 pixels
Height : 816 pixels
Display aspect ratio : 2.35:1
Frame rate mode : Constant
Frame rate : 23.976 (24000/1001) FPS
Color space : YUV
Chroma subsampling : 4:2:0
Bit depth : 8 bits
Scan type : Progressive
Bits/(Pixel*Frame) : 0.239
Stream size : 6.40 GiB (84%)
Writing library : x264 core 115 r1995 c1e60b9
Encoding settings : cabac=1 / ref=5 / deblock=1:0:0 / analyse=0x3:0x113 / me=umh / subme=8 / psy=1 / psy_rd=1.00:0.00 / mixed_ref=1 / me_range=16 / chroma_me=1 / trellis=1 / 8x8dct=1 / cqm=0 / deadzone=21,11 / fast_pskip=1 / chroma_qp_offset=-2 / threads=12 / sliced_threads=0 / nr=0 / decimate=1 / interlaced=0 / bluray_compat=0 / constrained_intra=0 / bframes=3 / b_pyramid=2 / b_adapt=2 / b_bias=0 / direct=3 / weightb=1 / open_gop=0 / weightp=2 / keyint=240 / keyint_min=24 / scenecut=40 / intra_refresh=0 / rc_lookahead=50 / rc=2pass / mbtree=1 / bitrate=8986 / ratetol=1.0 / qcomp=0.60 / qpmin=0 / qpmax=69 / qpstep=4 / cplxblur=20.0 / qblur=0.5 / ip_ratio=1.40 / aq=1:1.00
Language : English
Default : Yes
Forced : No

Audio
ID : 2
Format : DTS
Format/Info : Digital Theater Systems
Codec ID : A_DTS
Duration : 1 h 44 min
Bit rate mode : Constant
Bit rate : 1 509 kb/s
Channel(s) : 6 channels
Channel(s)_Original : 2 channels
ChannelLayout_Original : L R
Sampling rate : 48.0 kHz
Frame rate : 93.750 FPS (512 SPF)
Bit depth : 24 bits
Compression mode : Lossy
Stream size : 1.10 GiB (14%)
Language : English
Default : Yes
Forced : No

Subtitulos

Grupo: figure8
Versión: DVDRip XviD
Tamaño: 1.4 GB
XviD Codec
Interleaving: 2streams (ENG-SPA) AC3 sound
Bitrate: 1587 k(=1000)Bits/s
Frames: 150312
FPS: 25.000
Quality: 0.297 bits/(pixel*frame).
Resolution: 704 x 304

Subtitulos

Trailer