83
PUNTOS
Calificar
CALIFICA
Calificar
Califica y/o escribe un comentario sobre la película.
Comentarios en el foroFORO

Le salaire de la peur (1953)

En la selva sudamericana, se necesitan suministros de nitroglicerina para un campo petrolífero. La empresa, le paga a cuatro hombres para entregar los suministros en dos camiones. Surge una tensa competencia entre los dos equipos de conductores y en las ásperas carreteras, el más ligero impacto puede terminar en la muerte.
Director Henri-Georges Clouzot
Actores Yves Montand, Charles Vanel, Peter van Eyck
Duración 131 min
País France, Italy
Streaming (Servicio externo)
Grupo: NewMov
Versión: DVDRip XviD
Tamaño: 1.4 GB
The Wages of Fear (1953)      

RELEASE iNformATiON
                      
RELEASE DATE....: 12/26/2005          
GENRE...........: Thriller/Adventure/Action/Drama
IMDB RATING.....: 8.5/10 (3,516 votes)      
IMDB URL........: http://www.imdb.com/title/tt0046268/
VIDEO BITRATE...: 1087 Kbps XviD at 23.976 Fps  
AUDIO BITRATE...: 109Kbps Mono VBR MP3      
RUNTIME.........: 148m 04s            
ASPECT RATIO....: 1.357:1            
RESOLUTION......: 608 x 448            
LANGUAGE........: French            
SUBtitleS.......: English/Chinese        
FIlE SIZE.......: 2CD 2x49x15MB     

Subtitulos

Grupo: CHD
Versión: BDRip x264 720p AC3
Tamaño: 6.5 GB
General
Complete name                            : The.Wages.Of.Fear.1953.Bluray.720p.AC3.x264-CHD.mkv
Format                                   : Matroska
Format version                           : Version 1
File size                                : 6.54 GiB
Duration                                 : 2h 28mn
Overall bit rate                         : 6 323 Kbps
Encoded date                             : UTC 2009-04-18 16:10:37
Writing application                      : mkvmerge v2.6.0 ('Kelly watch the Stars') built on Mar 24 2009 15:23:17
Writing library                          : libebml v0.7.7 + libmatroska v0.8.1

Video
ID                                       : 1
Format                                   : AVC
Format/Info                              : Advanced Video Codec
Format profile                           : [email protected]
Format settings, CABAC                   : Yes
Format settings, ReFrames                : 4 frames
Codec ID                                 : V_MPEG4/ISO/AVC
Duration                                 : 2h 28mn
Bit rate                                 : 5 872 Kbps
Width                                    : 1 280 pixels
Height                                   : 966 pixels
Display aspect ratio                     : 4:3
Frame rate mode                          : Constant
Frame rate                               : 23.976 fps
Color space                              : YUV
Chroma subsampling                       : 4:2:0
Bit depth                                : 8 bits
Scan type                                : Progressive
Bits/(Pixel*Frame)                       : 0.198
Stream size                              : 5.95 GiB (91%)
Writing library                          : x264 core 65 r1072M f586ba5
Encoding settings                        : cabac=1 / ref=4 / deblock=1:-3:-3 / analyse=0x3:0x113 / me=umh /
                                           subme=7 / psy_rd=1.3:0.6 / mixed_ref=1 / me_range=32 / chroma_me=1 /
                                           trellis=1 / 8x8dct=1 / cqm=2 / deadzone=6,4 / chroma_qp_offset=-8 /
                                           threads=6 / nr=0 / decimate=1 / mbaff=0 / bframes=3 / b_pyramid=1 /
                                           b_adapt=1 / b_bias=0 / direct=3 / wpredb=1 / keyint=250 / keyint_min=25 /
                                           scenecut=40(pre) / rc=2pass / bitrate=5872 / ratetol=1.0 / qcomp=1.00 /
                                           qpmin=10 / qpmax=51 / qpstep=4 / cplxblur=20.0 / qblur=0.5 /
                                           ip_ratio=1.40 / pb_ratio=1.30 / aq=1:0.50 / zones=0,0,b=0.3

Default                                  : Yes
Forced                                   : No

Audio
ID                                       : 2
Format                                   : AC-3
Format/Info                              : Audio Coding 3
Mode extension                           : CM (complete main)
Format settings, Endianness              : Big
Codec ID                                 : A_AC3
Duration                                 : 2h 28mn
Bit rate mode                            : Constant
Bit rate                                 : 448 Kbps
Channel(s)                               : 2 channels
Channel positions                        : Front: L R
Sampling rate                            : 48.0 KHz
Bit depth                                : 16 bits
Compression mode                         : Lossy
Stream size                              : 475 MiB (7%)
Default                                  : Yes
Forced                                   : No

Subtitulos

Grupo: CHD
Versión: BDRip x264 1080p AC3
Tamaño: 8.7 GB
The.Wages.Of.Fear.1953.CC.Bluray.1080p.AC3.Audio.x264-CHD
RECODE RiPPER...: [email protected]
RELEASE DATE....: 04/19/2009
THEATRE DATE....: 02/16/1955
GENRE...........: Thriller / Adventure / Action
SOURCE TYPE.....: Blu-Ray 1080p H.264
ViDEO BiTRATE...: x264  L4.1 High @8030Kbits
RESOLUTiON......: 1432 x 1080
ASPECT RATiO....: 1.326:1
FRAME RATE......: 23.976 fps
RUNTiME.........: 149 mins
AUDiO BiTRATE...: AC3 1.0 384K(From LPCM 1.0)
LANGUAGE........: French / English / Spanish
SUBTiTLES.......: TBA
FilE SiZE.......: 8.71GB
iMDB URL........: http://www.imdb.com/title/tt0046268/
iMDB RATiNG.....: 8.3/10 (11,055 votes)Top 250: #141