73
PUNTOS
Calificar
CALIFICA
Calificar
Califica y/o escribe un comentario sobre la película.
Comentarios en el foroFORO

A Passage to India (1985)

Diferencias culturales y luchas de poder en la India colonial, a comienzos de los a?os veinte. Una joven inglesa viaja a la India para contraer matrimonio con su prometido, magistrado en la ciudad de Chandrapore. Le acompa?a en el viaje su futura suegra, la se?ora Moore. Adela desea conocer la India ’real’ y se presenta la oportunidad de la mano del enigmático doctor Aziv, de origen hindú, pero bien relacionado con los británicos. Éste la conduce a las cuevas de Marabar, donde ocurren hechos inesperados.
Director David Lean
Actores Judy Davis, Victor Banerjee, Peggy Ashcroft, James Fox
Duración 164 min
Streaming (Servicio externo)
Grupo: UnitedShare
Versión: DVDRip XviD AC3
Tamaño: 2.0 GB
File Name .......: A.Passage.To.India.1984.DVDRip.AC3.XviD-UnitedShare.CD1.avi
File Size .......: 697,70 MB

Duration ........: 00:49:16
Video Codec .....: XviD MPEG-4 codec
Video Bitrate ...: 1531 KB/s
Resolution ......: 688 x 368
Aspect Ratio ....: 1.86:1
Framerate .......: 23,976 FPS

Audio Codec .....: FAST Multimedia AG DVM (Dolby AC3)
Audio Bitrate ...: 448 KB/s (CBR)
Channels ........: 6 Ch

File Name .......: A.Passage.To.India.1984.DVDRip.AC3.XviD-UnitedShare.CD2.avi
File Size .......: 699,28 MB

Duration ........: 00:53:55
Video Codec .....: XviD MPEG-4 codec
Video Bitrate ...: 1365 KB/s
Resolution ......: 688 x 368
Aspect Ratio ....: 1.86:1
Framerate .......: 23,976 FPS

Audio Codec .....: FAST Multimedia AG DVM (Dolby AC3)
Audio Bitrate ...: 448 KB/s (CBR)
Channels ........: 6 Ch

File Name .......: A.Passage.To.India.1984.DVDRip.AC3.XviD-UnitedShare.CD3.avi
File Size .......: 699,44 MB

Duration ........: 00:59:43
Video Codec .....: XviD MPEG-4 codec
Video Bitrate ...: 1189 KB/s
Resolution ......: 688 x 368
Aspect Ratio ....: 1.86:1
Framerate .......: 23,976 FPS

Audio Codec .....: FAST Multimedia AG DVM (Dolby AC3)
Audio Bitrate ...: 448 KB/s (CBR)
Channels ........: 6 Ch

Subtitulos

Grupo: Japhson
Versión: BDRip x264 1080p AC3
Tamaño: 10.93 GB
Video
ID : 1
Format : AVC
Format/Info : Advanced Video Codec
Format profile : [email protected]
Format settings : CABAC / 4 Ref Frames
Format settings, CABAC : Yes
Format settings, Reference frames : 4 frames
Codec ID : V_MPEG4/ISO/AVC
Duration : 2 h 43 min
Bit rate : 8 902 kb/s
Width : 1 808 pixels
Height : 1 080 pixels
Display aspect ratio : 5:3
Frame rate mode : Constant
Frame rate : 23.976 (24000/1001) FPS
Color space : YUV
Chroma subsampling : 4:2:0
Bit depth : 8 bits
Scan type : Progressive
Bits/(Pixel*Frame) : 0.190
Stream size : 9.98 GiB (91%)
Writing library : x264 core 104 r1698 c41b8f0
Encoding settings : cabac=1 / ref=4 / deblock=1:-1:-1 / analyse=0x3:0x113 / me=umh / subme=7 / psy=1 / psy_rd=1.00:0.00 / mixed_ref=1 / me_range=16 / chroma_me=1 / trellis=1 / 8x8dct=1 / cqm=0 / deadzone=21,11 / fast_pskip=1 / chroma_qp_offset=-2 / threads=6 / sliced_threads=0 / nr=0 / decimate=1 / interlaced=0 / constrained_intra=0 / bframes=3 / b_pyramid=2 / b_adapt=2 / b_bias=0 / direct=3 / weightb=1 / open_gop=0 / weightp=2 / keyint=250 / keyint_min=23 / scenecut=40 / intra_refresh=0 / rc_lookahead=40 / rc=2pass / mbtree=1 / bitrate=8902 / ratetol=1.0 / qcomp=0.60 / qpmin=10 / qpmax=51 / qpstep=4 / cplxblur=20.0 / qblur=0.5 / vbv_maxrate=50000 / vbv_bufsize=50000 / ip_ratio=1.40 / aq=1:1.00 / nal_hrd=none
Language : English
Default : Yes
Forced : Yes

Audio
ID : 2
Format : AC-3
Format/Info : Audio Coding 3
Commercial name : Dolby Digital
Codec ID : A_AC3
Duration : 2 h 43 min
Bit rate mode : Constant
Bit rate : 640 kb/s
Channel(s) : 6 channels
Channel layout : L R C LFE Ls Rs
Sampling rate : 48.0 kHz
Frame rate : 31.250 FPS (1536 SPF)
Compression mode : Lossy
Stream size : 751 MiB (7%)
Language : English
Service kind : Complete Main
Default : Yes
Forced : Yes

Text
ID : 3
Format : UTF-8
Codec ID : S_TEXT/UTF8
Codec ID/Info : UTF-8 Plain Text
Language : English
Default : Yes
Forced : No

Subtitulos

Grupo: NiX
Versión: DVDRip XviD
Tamaño: 1.4 GB
Disk 1
Video
Codec                : XviD
Codec/Family         : MPEG-4
Codec/Info           : XviD project
PlayTime             : 1h 11mn
Bit rate             : 1121 Kbps
Width                : 624 pixels
Height               : 336 pixels
Display Aspect ratio : 1.857
Frame rate           : 25.000 fps
Resolution           : 8 bits
Chroma               : 4:2:0
Interlacement        : Progressive
Bits/(Pixel*Frame)   : 0.212
StreamSize           : 571 MiB

Audio
Codec                : MPEG-1 Audio layer 3
Codec profile        : Joint stereo
PlayTime             : 1h 11mn
Bit rate             : 222 Kbps
Bit rate mode        : VBR
Channel(s)           : 2 channels
Sampling rate        : 48 KHz
Resolution           : 16 bits
StreamSize           : 113 MiB
Writing library      : LAME3.93
Encoding settings    : ABR

Disk 2
Video
Codec                : XviD
Codec/Family         : MPEG-4
Codec/Info           : XviD project
PlayTime             : 1h 25mn
Bit rate             : 890 Kbps
Width                : 624 pixels
Height               : 336 pixels
Display Aspect ratio : 1.857
Frame rate           : 25.000 fps
Resolution           : 8 bits
Chroma               : 4:2:0
Interlacement        : Progressive
Bits/(Pixel*Frame)   : 0.169
StreamSize           : 546 MiB

Audio
Codec                : MPEG-1 Audio layer 3
Codec profile        : Joint stereo
PlayTime             : 1h 25mn
Bit rate             : 223 Kbps
Bit rate mode        : VBR
Channel(s)           : 2 channels
Sampling rate        : 48 KHz
Resolution           : 16 bits
StreamSize           : 137 MiB
Writing library      : Xing (new)
Trailer