72
PUNTOS
Calificar
CALIFICA
Calificar
Califica y/o escribe un comentario sobre la pelĂ­cula.
Comentarios en el foroFORO

The Lost Boys (1988)

Sam Emerson (Corey Haim) y su hermano mayor Michael (Jason Patric) son dos jóvenes americanos muy convencionales. Tras el divorcio de sus padres, se instalan en la tranquila ciudad de Santa Carla (California), donde corren rumores sobre vampiros. En esta ciudad la personalidad de Michael cambia sensiblemente y empieza a ir con una banda de moteros cuyo líder es el carismático David (Kiefer Sutherland). Obviamente, a su madre no le gustaría ver en qué se está convirtiendo.
Director Joel Schumacher
Actores Jason Patric, Corey Haim, Dianne Wiest
Duración 97 min
País United States
Streaming (Servicio externo)
Grupo: OLDTiME
Versión: BDRip x264 720p REMASTERED RERip
Tamaño: 4.3 GB
Video
ID : 1
Format : AVC
Format/Info : Advanced Video Codec
Format profile : [email protected]
Format settings : CABAC / 8 Ref Frames
Format settings, CABAC : Yes
Format settings, Reference frames : 8 frames
Codec ID : V_MPEG4/ISO/AVC
Duration : 1 h 37 min
Bit rate : 5 590 kb/s
Width : 1 280 pixels
Height : 536 pixels
Display aspect ratio : 2.40:1
Frame rate mode : Constant
Frame rate : 23.976 (24000/1001) FPS
Color space : YUV
Chroma subsampling : 4:2:0
Bit depth : 8 bits
Scan type : Progressive
Bits/(Pixel*Frame) : 0.340
Stream size : 3.80 GiB (88%)
Writing library : x264 core 164 r3098 7628a56
Encoding settings : cabac=1 / ref=8 / deblock=1:-3:-3 / analyse=0x3:0x133 / me=umh / subme=9 / psy=1 / psy_rd=1.00:0.00 / mixed_ref=1 / me_range=16 / chroma_me=1 / trellis=2 / 8x8dct=1 / cqm=0 / deadzone=21,11 / fast_pskip=0 / chroma_qp_offset=-2 / threads=17 / lookahead_threads=1 / sliced_threads=0 / nr=0 / decimate=1 / interlaced=0 / bluray_compat=0 / constrained_intra=0 / bframes=3 / b_pyramid=2 / b_adapt=2 / b_bias=0 / direct=3 / weightb=1 / open_gop=0 / weightp=2 / keyint=250 / keyint_min=23 / scenecut=40 / intra_refresh=0 / rc_lookahead=60 / rc=crf / mbtree=1 / crf=17.0 / qcomp=0.60 / qpmin=0 / qpmax=69 / qpstep=4 / ip_ratio=1.40 / aq=1:1.00
Language : English
Default : Yes
Forced : No

Audio
ID : 2
Format : AC-3
Format/Info : Audio Coding 3
Commercial name : Dolby Digital
Codec ID : A_AC3
Duration : 1 h 37 min
Bit rate mode : Constant
Bit rate : 640 kb/s
Channel(s) : 6 channels
Channel layout : L R C LFE Ls Rs
Sampling rate : 48.0 kHz
Frame rate : 31.250 FPS (1536 SPF)
Compression mode : Lossy
Stream size : 446 MiB (10%)
Language : English
Service kind : Complete Main
Default : Yes
Forced : No

Subtitulos

Grupo: OLDTiME
Versión: BDRip x264 1080p REMASTERED RERip
Tamaño: 12.0 GB
Video
ID : 1
Format : AVC
Format/Info : Advanced Video Codec
Format profile : [email protected]
Format settings : CABAC / 5 Ref Frames
Format settings, CABAC : Yes
Format settings, Reference frames : 5 frames
Codec ID : V_MPEG4/ISO/AVC
Duration : 1 h 37 min
Bit rate : 13.0 Mb/s
Width : 1 920 pixels
Height : 804 pixels
Display aspect ratio : 2.40:1
Frame rate mode : Constant
Frame rate : 23.976 (24000/1001) FPS
Color space : YUV
Chroma subsampling : 4:2:0
Bit depth : 8 bits
Scan type : Progressive
Bits/(Pixel*Frame) : 0.352
Stream size : 8.86 GiB (74%)
Writing library : x264 core 164 r3098 7628a56
Encoding settings : cabac=1 / ref=5 / deblock=1:-3:-3 / analyse=0x3:0x133 / me=umh / subme=9 / psy=1 / psy_rd=1.00:0.00 / mixed_ref=1 / me_range=16 / chroma_me=1 / trellis=2 / 8x8dct=1 / cqm=0 / deadzone=21,11 / fast_pskip=0 / chroma_qp_offset=-2 / threads=25 / lookahead_threads=2 / sliced_threads=0 / nr=0 / decimate=1 / interlaced=0 / bluray_compat=0 / constrained_intra=0 / bframes=3 / b_pyramid=2 / b_adapt=2 / b_bias=0 / direct=3 / weightb=1 / open_gop=0 / weightp=2 / keyint=250 / keyint_min=23 / scenecut=40 / intra_refresh=0 / rc_lookahead=60 / rc=crf / mbtree=1 / crf=18.0 / qcomp=0.60 / qpmin=0 / qpmax=69 / qpstep=4 / ip_ratio=1.40 / aq=1:1.00
Language : English
Default : Yes
Forced : No

Audio
ID : 2
Format : DTS XLL
Format/Info : Digital Theater Systems
Commercial name : DTS-HD Master Audio
Codec ID : A_DTS
Duration : 1 h 37 min
Bit rate mode : Variable
Bit rate : 4 418 kb/s
Channel(s) : 6 channels
Channel layout : C L R Ls Rs LFE
Sampling rate : 48.0 kHz
Frame rate : 93.750 FPS (512 SPF)
Bit depth : 24 bits
Compression mode : Lossless
Stream size : 3.01 GiB (25%)
Language : English
Default : Yes
Forced : No

Subtitulos

Grupo: DOME
Versión: DVDRip XviD
Length            : 697 MiB for 1h 33mn 23s 560ms

Video #0          : XviD at 891 Kbps
Aspect            : 640 x 256 (2.500) at 25.000 fps

Audio #0          : MPEG-1 Audio layer 3 at 130 Kbps
Infos             : 2 channels, 48 KHz

Subtitulos

Grupo: SAMuRAi
Versión: DVDRip DivX
Tamaño: 1.4 GB

Subtitulos

Grupo: SiNNERS
Versión: BDRip x264 720p AC3
Tamaño: 4.37 GB
The.Lost.Boys.1987.720p.BluRay.x264-SiNNERS                   
Release......: 2008.07.30                                   
Size.........: 4.37 gigs                                       
IMDB rating..: 6.9/10 (24,667 votes)                           
http://www.imdb.com/title/tt0093437/                           
Source.......: Blu Ray                           
Video specs..: x264 @ 5780 kbps                 
Audio specs..: English 5.1  - --> AC3/640kbps                     
Subtitles....: English                           
Runtime......: 97 min 26 sec 
Trailer