67
PUNTOS
Calificar
CALIFICA
Calificar
Califica y/o escribe un comentario sobre la película.
Comentarios en el foroFORO

Faust (2011)

Ambientada en el siglo XIX. Se basa en la leyenda alemana de Fausto, un sabio que hace un pacto con el diablo, y en las adaptaciones literarias del mito por parte de Johann Wolfgang von Goethe y Thomas Mann.
Director Aleksandr Sokurov
Actores Johannes Zeiler, Anton Adasinsky, Isolda Dychauk
Duración 140 min
País Russia
Streaming (Servicio externo)
Grupo: WRD
Versión: DVDRip XviD AC3
Faust (2011)    
RELEASE INFO  
Supplier .........: Team WRD                  
DivX Release Date : 2012/04/02                   
DVD Retail Date ..: 2012/03/xx                 
Theatre Date .....: 2011/10/26                  
Video Format .....: XviD                       
Video Bitrate ....: 1008 Kbps                    
Resolution .......: 640 x 480                     
Aspect Ratio .....: 1.33 : 1                     
Language .........: German                        
Audio Format .....: 5.1CH AC3                 
Audio Bitrate ....: 448 Kbps                         
DVD Runtime ......: 134 Mins                      
Frame Rate .......: 25 FPS                      
Subtitle .........: English/Russian                
Film Genre .......: Drama/Fantasy                 
File Size ........: 2 @ 49 x 15MB          

Subtitulos

Grupo: UNVEiL
Versión: BDRip x264 720p DTS
Tamaño: 5.46 GB
Faust.2011.720p.BluRay.x264-UNVEiL

http://www.imdb.com/title/tt1437357/

29/08/2012

Video
ID                               : 1
Format                           : AVC
Format/Info                      : Advanced Video Codec
Format profile                   : [email protected]
Format settings, CABAC           : Yes
Format settings, ReFrames        : 5 frames
Codec ID                         : V_MPEG4/ISO/AVC
Duration                         : 2h 19mn
Bit rate                         : 4 103 Kbps
Width                            : 960 pixels
Height                           : 720 pixels
Display aspect ratio             : 4:3
Frame rate                       : 24.000 fps
Color space                      : YUV
Chroma subsampling               : 4:2:0
Bit depth                        : 8 bits
Scan type                        : Progressive
Bits/(Pixel*Frame)               : 0.247
Stream size                      : 3.88 GiB (71%)
Writing library                  : x264 core 125 r2200 999b753
Encoding settings                : cabac=1 / ref=5 / deblock=1:0:0 / analyse=0x3:0x133 / me=umh / subme=7 / psy=1 / psy_rd=1.00:0.00 / mixed_ref=1 / me_range=16 / chroma_me=1 / trellis=1 / 8x8dct=1 / cqm=0 / deadzone=21,11 / fast_pskip=0 / chroma_qp_offset=-2 / threads=24 / lookahead_threads=4 / sliced_threads=0 / nr=0 / decimate=1 / interlaced=0 / bluray_compat=0 / constrained_intra=0 / bframes=3 / b_pyramid=2 / b_adapt=1 / b_bias=0 / direct=3 / weightb=1 / open_gop=0 / weightp=2 / keyint=240 / keyint_min=24 / scenecut=40 / intra_refresh=0 / rc_lookahead=40 / rc=2pass / mbtree=1 / bitrate=4103 / ratetol=1.0 / qcomp=0.60 / qpmin=10 / qpmax=51 / qpstep=4 / cplxblur=20.0 / qblur=0.5 / ip_ratio=1.40 / aq=1:1.00
Language                         : English
Default                          : Yes
Forced                           : No

Audio
ID                               : 2
Format                           : DTS
Format/Info                      : Digital Theater Systems
Codec ID                         : A_DTS
Duration                         : 2h 19mn
Bit rate mode                    : Constant
Bit rate                         : 1 510 Kbps
Channel(s)                       : 6 channels
Channel positions                : Front: L C R, Side: L R, LFE
Sampling rate                    : 48.0 KHz
Bit depth                        : 16 bits
Compression mode                 : Lossy
Stream size                      : 1.47 GiB (27%)
Language                         : German
Default                          : Yes
Forced                           : No

Text
ID                               : 3
Format                           : UTF-8
Codec ID                         : S_TEXT/UTF8
Codec ID/Info                    : UTF-8 Plain Text
Language                         : English
Default                          : Yes
Forced                           : Yes

Subtitulos

Grupo: MARS
Versión: BDRip x264 AAC INTERNAL
Tamaño: 1.1 GB
Release Name .....: Faust.2011.iNTERNAL.BDRip.x264-MARS

Title ............: Faust
URL ..............: http://www.imdb.com/title/tt1437357
Runtime ..........: 2h 13mn
Language .........: German 2ch AAC LC @ 110.6 Kb/s
Subtitles ........: English (full)
File Size ........: 1.1 GiB
Video ............: 25 fps x264 720x582 @ CRF 19 (1.1 Mb/s)

Notes

Please note, we didn\'t crop top and bottom on purpose - to preserve the original
letterbox presentation of the film.
Grupo: PHOBOS
Versión: BDRip x264 1080p AC3
Tamaño: 8.7 GB
Release Name .....: Faust.2011.1080p.BluRay.x264-PHOBOS

Title ............: Faust
URL ..............: http://www.imdb.com/title/tt1437357
Runtime ..........: 2h 13mn
Language .........: German 6ch AC3 @ 640.0 Kb/s
Subtitles ........: English (full)
File Size ........: 8.7 GiB
Video ............: 25 fps x264 1344x1080 @ 8.7 Mb/s