77
PUNTOS
Calificar
CALIFICA
Calificar
Califica y/o escribe un comentario sobre la película.
Comentarios en el foroFORO

Kung fu (2005)

Ambientada en el caos de la China prerrevolucionaria, un ladrón de poca monta, Sing (Stephen Chow), aspira a ser uno de los crueles y sofisticados miembros de la Banda del Hacha cuyas actividades ilegales ensombrecen la ciudad. Sing intenta extorsionar a uno de los habitantes de un complejo de apartamentos llamado "Pig Sty Alley", pero los vecinos no son lo que parecen. Sin pretenderlo, los cómicos intentos de intimidación de Sing atraen a la Banda del Hacha, desencadenando una serie de sucesos que enfrentan cara a cara los dos mundos tan diferentes. Mientras los habitantes de Pig Sty luchan por sus vidas, el choque de titanes de kung fu que sigue desentierra algunos maestros legendarios de artes marciales. A pesar de sus inútiles intentos, Sing carece del alma de un asesino y debe enfrentarse a su propia moralidad para descubrir la verdadera naturaleza del maestro de kung fu.
Director Stephen Chow
Actores Stephen Chow, Wah Yuen, Qiu Yuen
Duración 99 min
País Hong Kong, China, United States
Streaming (Servicio externo)
Grupo: FGT
Versión: BDRip x264 1080p
Tamaño: 8.7 GB
Video
ID : 1
Format : AVC
Format/Info : Advanced Video Codec
Format profile : [email protected]
Format settings : CABAC / 5 Ref Frames
Format settings, CABAC : Yes
Format settings, Reference frames : 5 frames
Codec ID : V_MPEG4/ISO/AVC
Duration : 1 h 39 min
Bit rate : 11.0 Mb/s
Width : 1 920 pixels
Height : 800 pixels
Display aspect ratio : 2.40:1
Frame rate mode : Constant
Frame rate : 23.976 (24000/1001) FPS
Color space : YUV
Chroma subsampling : 4:2:0
Bit depth : 8 bits
Scan type : Progressive
Bits/(Pixel*Frame) : 0.298
Stream size : 7.61 GiB (88%)
Writing library : x264 core 155 r2901 7d0ff22
Encoding settings : cabac=1 / ref=5 / deblock=1:0:0 / analyse=0x3:0x133 / me=tesa / subme=10 / psy=1 / psy_rd=1.00:0.00 / mixed_ref=1 / me_range=24 / chroma_me=1 / trellis=2 / 8x8dct=1 / cqm=0 / deadzone=21,11 / fast_pskip=0 / chroma_qp_offset=-2 / threads=12 / lookahead_threads=2 / sliced_threads=0 / nr=0 / decimate=1 / interlaced=0 / bluray_compat=0 / constrained_intra=0 / bframes=8 / b_pyramid=0 / b_adapt=2 / b_bias=0 / direct=3 / weightb=1 / open_gop=0 / weightp=2 / keyint=240 / keyint_min=24 / scenecut=40 / intra_refresh=0 / rc_lookahead=60 / rc=2pass / mbtree=1 / bitrate=10958 / ratetol=1.0 / qcomp=0.60 / qpmin=0 / qpmax=69 / qpstep=4 / cplxblur=20.0 / qblur=0.5 / vbv_maxrate=78125 / vbv_bufsize=62500 / nal_hrd=none / filler=0 / ip_ratio=1.40 / aq=1:1.00
Language : Chinese
Default : Yes
Forced : No
Color range : Limited
Color primaries : BT.709
Transfer characteristics : BT.709
Matrix coefficients : BT.709

Audio
ID : 2
Format : DTS
Format/Info : Digital Theater Systems
Codec ID : A_DTS
Duration : 1 h 39 min
Bit rate mode : Constant
Bit rate : 1 509 kb/s
Channel(s) : 6 channels
Channel layout : C L R Ls Rs LFE
Sampling rate : 48.0 kHz
Frame rate : 93.750 FPS (512 SPF)
Bit depth : 16 bits
Compression mode : Lossy
Stream size : 1.05 GiB (12%)
Language : Chinese
Default : Yes
Forced : No

Subtitulos

Grupo: TxxZ
Versión: DVDRip XviD INTERNAL
Tamaño: 700 MB
Ripper........................CBF
Date Ripped............02.01.2005
Video Codec ...........XviD 1.0.2
Audio Codec ......VBR MP3 128kbps
Resolution..............640 x 272
Subtitles.........Chinese/English
Bitrate..................848 kbps   
Genre...............Action/Comedy
Runtime..................01:39:26   
Language.................Mandarin 
File sizes............1CD/49x15MB
DVD Release date.......2005.02.22

Subtitulos

Grupo: TLF
Versión: DVDRip XviD RETAIL
Tamaño: 700 MB
       ÚÄÄÄÄÄÄÄÄÄÄÄÄÄÄÄÄÄÄÄÄÄÄÄÄÄÄÄÄÄÄÄÄÄÂÄÄÄÄÄÄÄÄÄÄÄÄÄÄÄÄÄÄÄÄÄÄÄÄÄÄÄÄÄÄÄ¿ 
       ³ SUPPLIER: TEAM TLF              ³    DVD RELEASE:  03.15.05°°±²Û³Û
       ³ RIPPER: TEAM TLF                ³    DIVX RELEASE: 01.31.05  °±²³Û
       ³ IMDB RATE: 7.7                  ³    RUNTIME:  99 MiN          °³Û
       ³ FRAME RATE: 23.976fps           ³    GENERE: Comedy/Action      ³Û
       ³ VIDEO CODEC: XviD 1.02  866kbps ³    LANGUAGE: Cantonese        ³Û
       ³ AUDIO CODEC: MP3 128kbps VBR    ³    SUBSTITLE: Chinese/English ³Û
       ³ ASPECT RATIO: 1.85:1            ³    MOVIE SIZE: 1CD  49 X 15MB ³Û
       ³ RESOLUTION: 640X352             ³                               ³Û
       ÀÄÄÄÄÄÄÄÄÄÄÄÄÄÄÄÄÄÄÄÄÄÄÄÄÄÄÄÄÄÄÄÄÄÁÄÄÄÄÄÄÄÄÄÄÄÄÄÄÄÄÄÄÄÄÄÄÄÄÄÄÄÄÄÄÄÙÛ
        ²² ßßßßßßßßßßßßßßßßßßßßßßßßßßßßßßßßßßßßßßßßßßßßßßßßßßßßßßßßßßßßßßßß 

Subtitulos

Grupo: ESiR
Versión: BDRip x264 720p DTS
Tamaño: 4.4 GB
  _¦¦¦¦¦¦¦¦¦¦¦¦¦¦¦¦¦¦¦¦¦¦¦¦¦¦¦¦¦¦¦¦¦¦¦¦¦¦¦¦¦¦¦¦¦¦¦¦¦¦¦¦¦¦¦¦¦¦¦¦¦¦¦¦¦¦¦¦¦¦¦¦¦¦_
¦¦¦¯ ¦ RELEASE.iNFO: ¦¯                                                   ¯¦¦¦
¦¯   ¯¯¯¯¯¯¯¯¯¯¯¯¯¯¯¯¯                                                      ¯¦
¦   RELEASE.NAME..: Kung.Fu.Hustle.2004.720p.BluRay.DTS.x264-ESiR            ¦
¦   RELEASE.DATE..: 10.04.2007                                               ¦
¦   THEATRE.DATE..: 14.09.2004                                               ¦
¦   RUNTiME.......: 1:39:25                                                  ¦
¦   SiZE..........: 4.37 GB                                                  ¦
¦   ViDEO.CODEC...: x264                                                     ¦
¦   FRAMERATE.....: 23.976                                                   ¦
¦   BiTRATE.......: 5535 kbps                                                ¦
¦   RESOLUTiON....: 1280x536 (OAR)                                           ¦
¦   AUDiO.........: Chinese (Cantonese) DTS 5.1 768 kbps                     ¦
¦   SUBTiTLES.....: Eng,Ro,Ger,Swe,Nor,Dan,Fin,Cze,Spa,Fre,Dut,Est,Scc,Scr,  ¦
¦                   Slv,Slo - all ASS                                        ¦
¦   SOURCE........: Kung.Fu.Hustle.Blu-ray.REMUX.MPEG2.                      ¦
Trailer