78
PUNTOS
Calificar
CALIFICA
Calificar
Califica y/o escribe un comentario sobre la película.
Comentarios en el foroFORO

Aftersun (2023)

Sophie (Francesca Corio / Celia Rowlson-Hall como la Sophie adulta) reflexiona sobre la alegría compartida y la melancolía privada de unas vacaciones que hizo con su padre (Paul Mescal) 20 años atrás. Los recuerdos reales e imaginarios llenan los espacios entre las imágenes mientras intenta reconciliar al padre que conoció con el hombre que no conoció.
Director Charlotte Wells
Actores Paul Mescal, Frankie Corio, Celia Rowlson-Hall
Duración 102 min
País United Kingdom, United States
Streaming (Servicio externo)
Grupo: NAISU
Versión: WEB H264 1080p
Tamaño: 8.1 GB
	
Video
ID : 1
Format : AVC
Format/Info : Advanced Video Codec
Format profile : [email protected]
Format settings : CABAC / 4 Ref Frames
Format settings, CABAC : Yes
Format settings, Reference frames : 4 frames
Codec ID : V_MPEG4/ISO/AVC
Duration : 1 h 41 min
Bit rate : 10.5 Mb/s
Width : 1 920 pixels
Height : 1 040 pixels
Display aspect ratio : 1.85:1
Frame rate mode : Constant
Frame rate : 23.976 (24000/1001) FPS
Color space : YUV
Chroma subsampling : 4:2:0
Bit depth : 8 bits
Scan type : Progressive
Bits/(Pixel*Frame) : 0.220
Stream size : 7.48 GiB (92%)
Default : Yes
Forced : No
Color range : Limited
Color primaries : BT.709
Transfer characteristics : BT.709
Matrix coefficients : BT.709

Audio
ID : 2
Format : E-AC-3
Format/Info : Enhanced AC-3
Commercial name : Dolby Digital Plus
Codec ID : A_EAC3
Duration : 1 h 41 min
Bit rate mode : Constant
Bit rate : 640 kb/s
Channel(s) : 6 channels
Channel layout : L R C LFE Ls Rs
Sampling rate : 48.0 kHz
Frame rate : 31.250 FPS (1536 SPF)
Compression mode : Lossy
Stream size : 466 MiB (6%)
Language : English
Service kind : Complete Main
Default : Yes
Forced : No

Subtitulos

Trailer