59
PUNTOS
Calificar
CALIFICA
Calificar
Califica y/o escribe un comentario sobre la película.
Comentarios en el foroFORO

Vous ne désirez que moi (2022)

Un hombre que mantiene una apasionada relación con una célebre escritora 30 años mayor que él necesita hablar. Está fascinado por ella y, sin embargo, siente que no puede seguir adelante. En un intento de poner en palabras la intensidad de su amor, se abre y lo describe con gran claridad.
Director Claire Simon
Actores Swann Arlaud, Emmanuelle Devos, Christophe Paou
Duración 95 min
País France
Streaming (Servicio externo)
Grupo: EXTREME
Versión: WEB H264 720p
Tamaño: 1.8 GB
General
Unique ID                                : 153809676726818560390426097081942724732 (0x73B6AA8D0810F1057781C1533B5ED07C)
Complete name                            : Vous.Ne.Desirez.Que.Moi.2022.FRENCH.720p.WEB.H264-EXTREME.mkv
Format                                   : Matroska
Format version                           : Version 4
File size                                : 1.70 GiB
Duration                                 : 1 h 35 min
Overall bit rate                         : 2 549 kb/s
Encoded date                             : UTC 2022-07-31 07:42:27
Writing application                      : mkvmerge v50.0.0 ('Awakenings') 64-bit
Writing library                          : libebml v1.4.0 + libmatroska v1.6.2

Video
ID                                       : 1
Format                                   : AVC
Format/Info                              : Advanced Video Codec
Format profile                           : [email protected]
Format settings                          : CABAC / 5 Ref Frames
Format settings, CABAC                   : Yes
Format settings, Reference frames        : 5 frames
Codec ID                                 : V_MPEG4/ISO/AVC
Duration                                 : 1 h 35 min
Bit rate                                 : 2 164 kb/s
Width                                    : 1 044 pixels
Height                                   : 564 pixels
Display aspect ratio                     : 1.85:1
Frame rate mode                          : Constant
Frame rate                               : 25.000 FPS
Color space                              : YUV
Chroma subsampling                       : 4:2:0
Bit depth                                : 8 bits
Scan type                                : Progressive
Bits/(Pixel*Frame)                       : 0.147
Stream size                              : 1.44 GiB (85%)
Default                                  : Yes
Forced                                   : No
Color range                              : Limited
Color primaries                          : BT.709
Transfer characteristics                 : BT.709
Matrix coefficients                      : BT.709

Audio
ID                                       : 2
Format                                   : AC-3
Format/Info                              : Audio Coding 3
Commercial name                          : Dolby Digital
Codec ID                                 : A_AC3
Duration                                 : 1 h 35 min
Bit rate mode                            : Constant
Bit rate                                 : 384 kb/s
Channel(s)                               : 6 channels
Channel layout                           : L R C LFE Ls Rs
Sampling rate                            : 48.0 kHz
Frame rate                               : 31.250 FPS (1536 SPF)
Compression mode                         : Lossy
Stream size                              : 262 MiB (15%)
Title                                    : French
Language                                 : French
Service kind                             : Complete Main
Default                                  : Yes
Forced                                   : Yes

Subtitulos

Grupo: EXTREME
Versión: WEB H264 1080p
Tamaño: 3.9 GB
General
Unique ID                                : 65979228110128385276841023018433471572 (0x31A32319CDC7F0B3CB033A2A2C176454)
Complete name                            : Vous.Ne.Desirez.Que.Moi.2022.FRENCH.1080p.WEB.H264-EXTREME.mkv
Format                                   : Matroska
Format version                           : Version 4
File size                                : 3.67 GiB
Duration                                 : 1 h 35 min
Overall bit rate                         : 5 502 kb/s
Encoded date                             : UTC 2022-07-31 07:42:01
Writing application                      : mkvmerge v50.0.0 ('Awakenings') 64-bit
Writing library                          : libebml v1.4.0 + libmatroska v1.6.2

Video
ID                                       : 1
Format                                   : AVC
Format/Info                              : Advanced Video Codec
Format profile                           : [email protected]
Format settings                          : CABAC / 4 Ref Frames
Format settings, CABAC                   : Yes
Format settings, Reference frames        : 4 frames
Codec ID                                 : V_MPEG4/ISO/AVC
Duration                                 : 1 h 35 min
Bit rate                                 : 5 116 kb/s
Width                                    : 1 920 pixels
Height                                   : 1 038 pixels
Display aspect ratio                     : 1.85:1
Frame rate mode                          : Constant
Frame rate                               : 25.000 FPS
Color space                              : YUV
Chroma subsampling                       : 4:2:0
Bit depth                                : 8 bits
Scan type                                : Progressive
Bits/(Pixel*Frame)                       : 0.103
Stream size                              : 3.41 GiB (93%)
Default                                  : Yes
Forced                                   : No
Color range                              : Limited
Color primaries                          : BT.709
Transfer characteristics                 : BT.709
Matrix coefficients                      : BT.709

Audio
ID                                       : 2
Format                                   : AC-3
Format/Info                              : Audio Coding 3
Commercial name                          : Dolby Digital
Codec ID                                 : A_AC3
Duration                                 : 1 h 35 min
Bit rate mode                            : Constant
Bit rate                                 : 384 kb/s
Channel(s)                               : 6 channels
Channel layout                           : L R C LFE Ls Rs
Sampling rate                            : 48.0 kHz
Frame rate                               : 31.250 FPS (1536 SPF)
Compression mode                         : Lossy
Stream size                              : 262 MiB (7%)
Title                                    : French
Language                                 : French
Service kind                             : Complete Main
Default                                  : Yes
Forced                                   : Yes

Subtitulos

Trailer