78
PUNTOS
Calificar
CALIFICA
Calificar
Califica y/o escribe un comentario sobre la película.
Comentarios en el foroFORO

Tár (2023)

La mundialmente famosa Lydia Tár está a solo unos días de grabar la sinfonía que la llevará a las alturas de su ya formidable carrera. La notablemente brillante y encantadora hija adoptiva de Tár, Petra, de seis años, tiene un papel clave en la tarea. Y cuando los elementos parecen conspirar contra Lydia, la joven es un apoyo emocional importante para su madre en apuros.
Director Todd Field
Actores Cate Blanchett, Noémie Merlant, Nina Hoss
Duración 158 min
País United States
Streaming (Servicio externo)
Grupo: FGT
Versión: BDRip x264 720p
Tamaño: 7.7 GB
Video
ID : 1
Format : AVC
Format/Info : Advanced Video Codec
Format profile : [email protected]
Format settings : CABAC / 4 Ref Frames
Format settings, CABAC : Yes
Format settings, Reference frames : 4 frames
Codec ID : V_MPEG4/ISO/AVC
Duration : 2 h 37 min
Bit rate : 5 500 kb/s
Width : 1 280 pixels
Height : 536 pixels
Display aspect ratio : 2.40:1
Frame rate mode : Constant
Frame rate : 23.976 (24000/1001) FPS
Color space : YUV
Chroma subsampling : 4:2:0
Bit depth : 8 bits
Scan type : Progressive
Bits/(Pixel*Frame) : 0.334
Stream size : 6.07 GiB (78%)
Writing library : x264 core 148 r2795M aaa9aa8
Encoding settings : cabac=1 / ref=4 / deblock=1:-2:-2 / analyse=0x3:0x113 / me=umh / subme=9 / psy=1 / psy_rd=1.00:0.15 / mixed_ref=1 / me_range=16 / chroma_me=1 / trellis=2 / 8x8dct=1 / cqm=0 / deadzone=21,11 / fast_pskip=1 / chroma_qp_offset=-3 / threads=72 / lookahead_threads=3 / sliced_threads=0 / nr=0 / decimate=1 / interlaced=0 / bluray_compat=0 / constrained_intra=0 / bframes=3 / b_pyramid=2 / b_adapt=1 / b_bias=0 / direct=3 / weightb=1 / open_gop=0 / weightp=2 / keyint=250 / keyint_min=25 / scenecut=40 / intra_refresh=0 / rc_lookahead=50 / rc=2pass / mbtree=1 / bitrate=5500 / ratetol=1.0 / qcomp=0.60 / qpmin=0 / qpmax=69 / qpstep=4 / cplxblur=20.0 / qblur=0.5 / vbv_maxrate=31250 / vbv_bufsize=31250 / nal_hrd=none / filler=0 / ip_ratio=1.40 / aq=1:1.00
Language : English
Default : Yes
Forced : No

Audio
ID : 2
Format : DTS
Format/Info : Digital Theater Systems
Codec ID : A_DTS
Duration : 2 h 37 min
Bit rate mode : Constant
Bit rate : 1 509 kb/s
Channel(s) : 6 channels
Channel layout : C L R Ls Rs LFE
Sampling rate : 48.0 kHz
Frame rate : 93.750 FPS (512 SPF)
Bit depth : 24 bits
Compression mode : Lossy
Stream size : 1.67 GiB (22%)
Title : DTS 5.1
Language : English
Default : No
Forced : No

Text #1
ID : 3
Format : UTF-8
Codec ID : S_TEXT/UTF8
Codec ID/Info : UTF-8 Plain Text
Duration : 2 h 33 min
Bit rate : 53 b/s
Frame rate : 0.187 FPS
Count of elements : 1723
Stream size : 60.7 KiB (0%)
Language : English
Default : Yes
Forced : No

Text #2
ID : 4
Format : UTF-8
Codec ID : S_TEXT/UTF8
Codec ID/Info : UTF-8 Plain Text
Duration : 2 h 33 min
Bit rate : 61 b/s
Frame rate : 0.224 FPS
Count of elements : 2064
Stream size : 68.8 KiB (0%)
Title : SDH
Language : English
Default : No
Forced : No

Menu
00:00:00.000 : en:Chapter 01
00:07:29.782 : en:Chapter 02
00:17:07.151 : en:Chapter 03
00:25:12.302 : en:Chapter 04
00:35:37.677 : en:Chapter 05
00:42:15.407 : en:Chapter 06
00:49:55.867 : en:Chapter 07
00:58:05.440 : en:Chapter 08
01:06:35.074 : en:Chapter 09
01:14:31.800 : en:Chapter 10
01:22:07.714 : en:Chapter 11
01:32:25.581 : en:Chapter 12
01:39:26.085 : en:Chapter 13
01:48:11.067 : en:Chapter 14
01:56:48.334 : en:Chapter 15
02:05:49.124 : en:Chapter 16
02:11:24.334 : en:Chapter 17
02:19:23.772 : en:Chapter 18
02:27:28.130 : en:Chapter 19
02:34:42.356 : en:Chapter 20

Subtitulos

Grupo: FGT
Versión: BDRip x264 1080p
Tamaño: 14.4 GB
Video
ID : 1
Format : AVC
Format/Info : Advanced Video Codec
Format profile : [email protected]
Format settings : CABAC / 4 Ref Frames
Format settings, CABAC : Yes
Format settings, Reference frames : 4 frames
Codec ID : V_MPEG4/ISO/AVC
Duration : 2 h 37 min
Bit rate : 11.5 Mb/s
Width : 1 920 pixels
Height : 804 pixels
Display aspect ratio : 2.40:1
Frame rate mode : Constant
Frame rate : 23.976 (24000/1001) FPS
Color space : YUV
Chroma subsampling : 4:2:0
Bit depth : 8 bits
Scan type : Progressive
Bits/(Pixel*Frame) : 0.311
Stream size : 12.7 GiB (88%)
Writing library : x264 core 148 r2748 97eaef2
Encoding settings : cabac=1 / ref=4 / deblock=1:-2:-2 / analyse=0x3:0x113 / me=umh / subme=9 / psy=1 / psy_rd=1.00:0.15 / mixed_ref=1 / me_range=16 / chroma_me=1 / trellis=2 / 8x8dct=1 / cqm=0 / deadzone=21,11 / fast_pskip=1 / chroma_qp_offset=-3 / threads=72 / lookahead_threads=3 / sliced_threads=0 / nr=0 / decimate=1 / interlaced=0 / bluray_compat=0 / constrained_intra=0 / bframes=3 / b_pyramid=2 / b_adapt=1 / b_bias=0 / direct=3 / weightb=1 / open_gop=0 / weightp=2 / keyint=250 / keyint_min=25 / scenecut=40 / intra_refresh=0 / rc_lookahead=50 / rc=2pass / mbtree=1 / bitrate=11500 / ratetol=1.0 / qcomp=0.60 / qpmin=0 / qpmax=69 / qpstep=4 / cplxblur=20.0 / qblur=0.5 / vbv_maxrate=31250 / vbv_bufsize=31250 / nal_hrd=none / filler=0 / ip_ratio=1.40 / aq=1:1.00
Language : English
Default : Yes
Forced : No

Audio
ID : 2
Format : DTS
Format/Info : Digital Theater Systems
Codec ID : A_DTS
Duration : 2 h 37 min
Bit rate mode : Constant
Bit rate : 1 509 kb/s
Channel(s) : 6 channels
Channel layout : C L R Ls Rs LFE
Sampling rate : 48.0 kHz
Frame rate : 93.750 FPS (512 SPF)
Bit depth : 24 bits
Compression mode : Lossy
Stream size : 1.67 GiB (12%)
Title : DTS 5.1
Language : English
Default : No
Forced : No

Text #1
ID : 3
Format : UTF-8
Codec ID : S_TEXT/UTF8
Codec ID/Info : UTF-8 Plain Text
Duration : 2 h 33 min
Bit rate : 53 b/s
Frame rate : 0.187 FPS
Count of elements : 1723
Stream size : 60.7 KiB (0%)
Language : English
Default : Yes
Forced : No

Text #2
ID : 4
Format : UTF-8
Codec ID : S_TEXT/UTF8
Codec ID/Info : UTF-8 Plain Text
Duration : 2 h 33 min
Bit rate : 61 b/s
Frame rate : 0.224 FPS
Count of elements : 2064
Stream size : 68.8 KiB (0%)
Title : SDH
Language : English
Default : No
Forced : No

Menu
00:00:00.000 : en:Chapter 01
00:07:29.782 : en:Chapter 02
00:17:07.151 : en:Chapter 03
00:25:12.302 : en:Chapter 04
00:35:37.677 : en:Chapter 05
00:42:15.407 : en:Chapter 06
00:49:55.867 : en:Chapter 07
00:58:05.440 : en:Chapter 08
01:06:35.074 : en:Chapter 09
01:14:31.800 : en:Chapter 10
01:22:07.714 : en:Chapter 11
01:32:25.581 : en:Chapter 12
01:39:26.085 : en:Chapter 13
01:48:11.067 : en:Chapter 14
01:56:48.334 : en:Chapter 15
02:05:49.124 : en:Chapter 16
02:11:24.334 : en:Chapter 17
02:19:23.772 : en:Chapter 18
02:27:28.130 : en:Chapter 19
02:34:42.356 : en:Chapter 20

Subtitulos

Grupo: PiGNUS
Versión: BDRip x264 720p
Tamaño: 4.8 GB
Name: Tar.2022.720p.BluRay.x264-PiGNUS

Release date: 23-12-2022

IMDB link: https://www.imdb.com/title/tt14444726

Resolution: 1280x536
Audio: English AC3 6ch 640 kbps
Video: 3635 kbps, CRF 14
Source: 28849 kbps
Grupo: PiGNUS
Versión: BDRip x264 1080p
Tamaño: 14.2 GB
Name: Tar.2022.1080p.BluRay.x264-PiGNUS

Release date: 23-12-2022

IMDB link: https://www.imdb.com/title/tt14444726

Resolution: 1920x804
Audio: English Dolby TrueHD/Atmos 8ch 3946 kbps
Video: 9432 kbps, CRF 15
Source: 28849 kbps
Trailer