60
PUNTOS
Calificar
CALIFICA
Calificar
Califica y/o escribe un comentario sobre la película.
Comentarios en el foroFORO

Medieval (2022)

La historia del ícono checo del siglo XV y señor de la guerra Jan Zizka, quien derrotó a los ejércitos de la Orden Teutónica y el Sacro Imperio Romano Germánico.
Director Petr Jákl
Actores Ben Foster, Sophie Lowe, Michael Caine
Duración 126 min
País Czech Republic
Streaming (Servicio externo)
Grupo: NOGRP
Versión: WebRip x264 1080p
Tamaño: 5.9 GB
Video
ID : 1
Format : AVC
Format/Info : Advanced Video Codec
Format profile : [email protected]
Format settings : CABAC / 5 Ref Frames
Format settings, CABAC : Yes
Format settings, Reference frames : 5 frames
Codec ID : V_MPEG4/ISO/AVC
Duration : 2 h 0 min
Bit rate : 6 611 kb/s
Width : 1 916 pixels
Height : 854 pixels
Display aspect ratio : 2.25:1
Frame rate mode : Constant
Frame rate : 25.000 FPS
Color space : YUV
Chroma subsampling : 4:2:0
Bit depth : 8 bits
Scan type : Progressive
Bits/(Pixel*Frame) : 0.162
Stream size : 5.55 GiB (94%)
Default : Yes
Forced : No
Color range : Limited
Color primaries : BT.709
Transfer characteristics : BT.709
Matrix coefficients : BT.709

Audio
ID : 2
Format : AC-3
Format/Info : Audio Coding 3
Commercial name : Dolby Digital
Codec ID : A_AC3
Duration : 2 h 0 min
Bit rate mode : Constant
Bit rate : 384 kb/s
Channel(s) : 6 channels
Channel layout : L R C LFE Ls Rs
Sampling rate : 48.0 kHz
Frame rate : 31.250 FPS (1536 SPF)
Compression mode : Lossy
Stream size : 330 MiB (5%)
Language : English
Service kind : Complete Main
Default : Yes
Forced : No

Subtitulos

Trailer