73
PUNTOS
Calificar
CALIFICA
Calificar
Califica y/o escribe un comentario sobre la película.
Comentarios en el foroFORO

Heojil kyolshim (2022)

Hae-Joon, un veterano detective, investiga la sospechosa muerte de un hombre en la cima de una montaña. Pronto, comenzará a sospechar de Sore, la mujer del difunto, mientras la atracción que siente por ella lo desestabilizará.
Director Park Chan-wook
Actores Park Hae-il, Tang Wei, Lee Jung-hyun
Duración 139 min
País South Korea
Streaming (Servicio externo)
Grupo: PTer
Versión: BDRip x264 1080p
Tamaño: 20.7 GB
Chroma subsampling : 4:2:0
Bit depth : 8 bits
Scan type : Progressive
Bits/(Pixel*Frame) : 0.536
Stream size : 19.2 GiB (93%)
Writing library : x264 core 164 r3101 b093bbe
Encoding settings : cabac=1 / ref=5 / deblock=1:-3:-3 / analyse=0x3:0x133 / me=umh / subme=11 / psy=1 / psy_rd=1.02:0.00 / mixed_ref=1 / me_range=32 / chroma_me=1 / trellis=2 / 8x8dct=1 / cqm=0 / deadzone=21,11 / fast_pskip=0 / chroma_qp_offset=-2 / threads=25 / lookahead_threads=6 / sliced_threads=0 / nr=0 / decimate=0 / interlaced=0 / bluray_compat=0 / constrained_intra=0 / bframes=16 / b_pyramid=2 / b_adapt=2 / b_bias=0 / direct=3 / weightb=1 / open_gop=0 / weightp=2 / keyint=250 / keyint_min=24 / scenecut=40 / intra_refresh=0 / rc_lookahead=250 / rc=crf / mbtree=0 / crf=15.0 / qcomp=0.60 / qpmin=0 / qpmax=69 / qpstep=4 / vbv_maxrate=62500 / vbv_bufsize=78125 / crf_max=0.0 / nal_hrd=none / filler=0 / ip_ratio=1.30 / pb_ratio=1.20 / aq=3:0.80 / zones=1228,1430
Default : Yes
Forced : No

Audio
ID : 2
Format : E-AC-3
Format/Info : Enhanced AC-3
Commercial name : Dolby Digital Plus
Format profile : Blu-ray Disc
Format settings : Dolby Surround EX
Codec ID : A_EAC3
Duration : 2 h 18 min
Bit rate mode : Constant
Bit rate : 1 536 kb/s
Channel(s) : 8 channels
Channel layout : L R C LFE Ls Rs Lb Rb
Sampling rate : 48.0 kHz
Frame rate : 31.250 FPS (1536 SPF)
Compression mode : Lossy
Stream size : 1.49 GiB (7%)
Language : Korean
Service kind : Complete Main
Default : Yes
Forced : No

Text #1
ID : 3
Format : UTF-8
Codec ID : S_TEXT/UTF8
Codec ID/Info : UTF-8 Plain Text
Duration : 2 h 12 min
Bit rate : 37 b/s
Frame rate : 0.175 FPS
Count of elements : 1389
Stream size : 35.9 KiB (0%)
Title : Chinese Simplified
Language : Chinese
Default : No
Forced : No

Text #2
ID : 4
Format : UTF-8
Codec ID : S_TEXT/UTF8
Codec ID/Info : UTF-8 Plain Text
Duration : 2 h 12 min
Bit rate : 37 b/s
Frame rate : 0.175 FPS
Count of elements : 1389
Stream size : 35.9 KiB (0%)
Title : Chinese Traditional
Language : Chinese
Default : No
Forced : No

Text #3
ID : 5
Format : UTF-8
Codec ID : S_TEXT/UTF8
Codec ID/Info : UTF-8 Plain Text
Duration : 2 h 16 min
Bit rate : 43 b/s
Frame rate : 0.191 FPS
Count of elements : 1566
Stream size : 43.3 KiB (0%)
Language : English
Default : No
Forced : No

Text #4
ID : 6
Format : PGS
Muxing mode : zlib
Codec ID : S_HDMV/PGS
Codec ID/Info : Picture based subtitle format used on BDs/HD-DVDs
Duration : 2 h 17 min
Bit rate : 25.6 kb/s
Frame rate : 0.350 FPS
Count of elements : 2888
Stream size : 25.2 MiB (0%)
Language : French
Default : No
Forced : No

Text #5
ID : 7
Format : PGS
Muxing mode : zlib
Codec ID : S_HDMV/PGS
Codec ID/Info : Picture based subtitle format used on BDs/HD-DVDs
Duration : 50 min 33 s
Bit rate : 32.5 kb/s
Frame rate : 0.439 FPS
Count of elements : 1332
Stream size : 11.8 MiB (0%)
Title : Hard of hearing
Language : French
Default : No
Forced : No

Menu
00:00:00.000 : :Chapter 01
00:08:02.167 : :Chapter 02
00:23:05.500 : :Chapter 03
00:37:14.917 : :Chapter 04
00:50:41.042 : :Chapter 05
01:01:26.792 : :Chapter 06
01:17:06.083 : :Chapter 07
01:26:31.833 : :Chapter 08
01:38:45.292 : :Chapter 09
01:54:57.625 : :Chapter 10
02:05:28.333 : :Chapter 11
02:13:23.125 : :Chapter 12

Subtitulos

Grupo: NOGRP
Versión: WEBRip x264 1080p
Tamaño: 7.9 GB
Video
ID : 1
Format : AVC
Format/Info : Advanced Video Codec
Format profile : [email protected]
Format settings : CABAC / 2 Ref Frames
Format settings, CABAC : Yes
Format settings, Reference frames : 2 frames
Format settings, GOP : M=1, N=30
Codec ID : V_MPEG4/ISO/AVC
Duration : 2 h 18 min
Bit rate mode : Constant
Bit rate : 8 000 kb/s
Width : 1 920 pixels
Height : 1 080 pixels
Display aspect ratio : 16:9
Frame rate mode : Constant
Frame rate : 23.976 (24000/1001) FPS
Color space : YUV
Chroma subsampling : 4:2:0
Bit depth : 8 bits
Scan type : Progressive
Bits/(Pixel*Frame) : 0.161
Stream size : 7.74 GiB (98%)
Language : Korean
Default : Yes
Forced : No

Audio
ID : 2
Format : AAC LC SBR
Format/Info : Advanced Audio Codec Low Complexity with Spectral Band Replication
Commercial name : HE-AAC
Format settings : Implicit
Codec ID : A_AAC-2
Duration : 2 h 18 min
Bit rate : 192 kb/s
Channel(s) : 6 channels
Channel layout : C L R Ls Rs LFE
Sampling rate : 48.0 kHz
Frame rate : 23.438 FPS (2048 SPF)
Compression mode : Lossy
Stream size : 190 MiB (2%)
Language : Korean
Default : Yes
Forced : No

Text
ID : 3
Format : UTF-8
Codec ID : S_TEXT/UTF8
Codec ID/Info : UTF-8 Plain Text
Duration : 2 h 16 min
Bit rate : 50 b/s
Frame rate : 0.193 FPS
Count of elements : 1584
Stream size : 50.7 KiB (0%)
Language : English
Default : Yes
Forced : No

Subtitulos

Trailer