70
PUNTOS
Calificar
CALIFICA
Calificar
Califica y/o escribe un comentario sobre la película.
Comentarios en el foroFORO

Petite nature (2022)

Johnny es un chico completamente autónomo y con algunas responsabilidades impropias de su corta edad, como cuidar de su hermana menor. Además, ayuda en casa, se aplica en la escuela y ha aceptado con madurez la separación de sus padres. A pesar de las limitaciones del contexto social en el que crece, e inspirado por las lecciones académicas y vitales de un profesor, el chico se abre a los secretos y las vicisitudes del mundo adulto.
Director Samuel Theis
Actores Aliocha Reinert, Melissa Olexa, Antoine Reinartz
Duración 93 min
País France
Streaming (Servicio externo)
Grupo: KUCHU
Versión: WEB-DL H264 1080p
Tamaño: 3.9 GB
Video
ID : 1
Format : AVC
Format/Info : Advanced Video Codec
Format profile : [email protected]
Format settings : CABAC / 4 Ref Frames
Format settings, CABAC : Yes
Format settings, Reference frames : 4 frames
Codec ID : V_MPEG4/ISO/AVC
Duration : 1 h 34 min
Bit rate : 5 642 kb/s
Width : 1 920 pixels
Height : 1 080 pixels
Display aspect ratio : 16:9
Frame rate mode : Constant
Frame rate : 24.000 FPS
Color space : YUV
Chroma subsampling : 4:2:0
Bit depth : 8 bits
Scan type : Progressive
Bits/(Pixel*Frame) : 0.113
Stream size : 3.73 GiB (95%)
Default : Yes
Forced : No

Audio
ID : 2
Format : AAC LC
Format/Info : Advanced Audio Codec Low Complexity
Codec ID : A_AAC-2
Duration : 1 h 34 min
Bit rate : 317 kb/s
Channel(s) : 2 channels
Channel layout : L R
Sampling rate : 48.0 kHz
Frame rate : 46.875 FPS (1024 SPF)
Compression mode : Lossy
Stream size : 215 MiB (5%)
Language : French
Default : Yes
Forced : No

Text
ID : 3
Format : UTF-8
Codec ID : S_TEXT/UTF8
Codec ID/Info : UTF-8 Plain Text
Duration : 1 h 33 min
Bit rate : 42 b/s
Frame rate : 0.191 FPS
Count of elements : 1066
Stream size : 28.8 KiB (0%)
Language : English
Default : Yes
Forced : No

Subtitulos

Trailer