55
PUNTOS
Calificar
CALIFICA
Calificar
Califica y/o escribe un comentario sobre la película.
Comentarios en el foroFORO

Earwig (2022)

En algún lugar de Europa, a mediados del siglo XX, Albert (Paul Hilton) trabaja cuidando de Mia (Romane Hemelaers), una niña con dientes de hielo. Mia nunca sale de un departamento donde las puertas y ventanas siempre están cerradas. El teléfono suena con regularidad, y un individuo conocido como "el maestro" se interesa por el estado de Mia. Un día, Albert recibe instrucciones: debe preparar a la niña y salir al exterior.
Director Lucile Hadzihalilovic
Actores Paul Hilton, Alex Lawther, Romane Hemelaers
Duración 114 min
País United Kingdom, France, Belgium
Streaming (Servicio externo)
Grupo: KUCHU
Versión: WEB-DL H264 1080p
Tamaño: 4.7 GB
Video
ID : 1
Format : AVC
Format/Info : Advanced Video Codec
Format profile : [email protected]
Format settings : CABAC / 4 Ref Frames
Format settings, CABAC : Yes
Format settings, Reference frames : 4 frames
Codec ID : V_MPEG4/ISO/AVC
Duration : 1 h 54 min
Bit rate : 5 523 kb/s
Width : 1 920 pixels
Height : 1 080 pixels
Display aspect ratio : 16:9
Frame rate mode : Constant
Frame rate : 24.000 FPS
Color space : YUV
Chroma subsampling : 4:2:0
Bit depth : 8 bits
Scan type : Progressive
Bits/(Pixel*Frame) : 0.111
Stream size : 4.41 GiB (95%)
Default : Yes
Forced : No

Audio
ID : 2
Format : AAC LC
Format/Info : Advanced Audio Codec Low Complexity
Codec ID : A_AAC-2
Duration : 1 h 54 min
Bit rate : 317 kb/s
Channel(s) : 2 channels
Channel layout : L R
Sampling rate : 48.0 kHz
Frame rate : 46.875 FPS (1024 SPF)
Compression mode : Lossy
Stream size : 260 MiB (5%)
Language : English
Default : Yes
Forced : No

Text
ID : 3
Format : UTF-8
Codec ID : S_TEXT/UTF8
Codec ID/Info : UTF-8 Plain Text
Duration : 1 h 25 min
Bit rate : 5 b/s
Frame rate : 0.028 FPS
Count of elements : 144
Stream size : 3.63 KiB (0%)
Language : English
Default : Yes
Forced : No

Subtitulos

Trailer