62
PUNTOS
Calificar
CALIFICA
Calificar
Califica y/o escribe un comentario sobre la película.
Comentarios en el foroFORO

Samaritan (2022)

Sam Cleary (Javon "Wanna" Walton), un joven de 13 años, sospecha que su misterioso y solitario vecino, el Sr. Smith (Sylvester Stallone), es en realidad un personaje legendario que se esconde a plena vista. Hace 20 años, el vigilante superpoderoso de Granite City, Samaritan, fue declarado muerto tras una batalla en un almacén con su rival, Némesis. La gente cree que Samaritan falleció en el incendio, pero algunos ciudadanos como Sam tienen la esperanza de que siga vivo. Con la delincuencia en aumento y la ciudad al borde del caos, Sam se propone sacar a su vecino de su escondite para salvar la ciudad de la ruina.
Director Julius Avery
Actores Sylvester Stallone, Javon 'Wanna' Walton, Pilou Asb?k
País United States
Streaming (Servicio externo)
Grupo: NAISU
Versión: WEB H264 1080p
Tamaño: 6.0 GB
Video
ID : 1
Format : AVC
Format/Info : Advanced Video Codec
Format profile : [email protected]
Format settings : CABAC / 4 Ref Frames
Format settings, CABAC : Yes
Format settings, Reference frames : 4 frames
Codec ID : V_MPEG4/ISO/AVC
Duration : 1 h 42 min
Bit rate mode : Constant
Bit rate : 7 553 kb/s
Nominal bit rate : 10 000 kb/s
Width : 1 920 pixels
Height : 800 pixels
Display aspect ratio : 2.40:1
Frame rate mode : Constant
Frame rate : 23.976 (24000/1001) FPS
Color space : YUV
Chroma subsampling : 4:2:0
Bit depth : 8 bits
Scan type : Progressive
Bits/(Pixel*Frame) : 0.205
Stream size : 5.39 GiB (90%)
Default : Yes
Forced : No
Color range : Limited
Color primaries : BT.709
Transfer characteristics : BT.709
Matrix coefficients : BT.709

Audio
ID : 2
Format : E-AC-3
Format/Info : Enhanced AC-3
Commercial name : Dolby Digital Plus
Codec ID : A_EAC3
Duration : 1 h 42 min
Bit rate mode : Constant
Bit rate : 640 kb/s
Channel(s) : 6 channels
Channel layout : L R C LFE Ls Rs
Sampling rate : 48.0 kHz
Frame rate : 31.250 FPS (1536 SPF)
Compression mode : Lossy
Stream size : 468 MiB (8%)
Language : English
Service kind : Complete Main
Default : Yes
Forced : No

Subtitulos

Trailer