56
PUNTOS
Calificar
CALIFICA
Calificar
Califica y/o escribe un comentario sobre la película.
Comentarios en el foroFORO

L'homme de la cave (2021)

En París, una pareja de orígenes judíos decide vender un sótano insalubre en el edificio donde viven. Un hombre normal y corriente, el señor Fonzic (François Cluzet), aparece para comprarlo. Hasta aquí nada inusual, pero el hombre, que resulta ser un negacionista del holocausto, se muda al sótano y lo convierte en su residencia permanente. La pareja intenta desesperadamente sin éxito cancelar la venta. Poco a poco, su presencia cambiará la vida de la pareja.
Director Philippe Le Guay
Actores Fran?ois Cluzet, Jérémie Renier, Bérénice Bejo
Duración 114 min
País France
Streaming (Servicio externo)
Grupo: EXTREME
Versión: WEB H264 720p
Tamaño: 2.2 GB
General
Unique ID                                : 77497835827200270341917573511694651341 (0x3A4D8A4EC5E57E6B30677BEE18D20FCD)
Complete name                            : L.Homme.de.la.Cave.2021.FRENCH.720p.WEB.H264-EXTREME.mkv
Format                                   : Matroska
Format version                           : Version 4
File size                                : 2.00 GiB
Duration                                 : 1 h 54 min
Overall bit rate                         : 2 498 kb/s
Encoded date                             : UTC 2022-02-16 15:21:49
Writing application                      : mkvmerge v64.0.0 ('Willows') 64-bit
Writing library                          : libebml v1.4.2 + libmatroska v1.6.4

Video
ID                                       : 2
Format                                   : AVC
Format/Info                              : Advanced Video Codec
Format profile                           : [email protected]
Format settings                          : CABAC / 5 Ref Frames
Format settings, CABAC                   : Yes
Format settings, Reference frames        : 5 frames
Codec ID                                 : V_MPEG4/ISO/AVC
Duration                                 : 1 h 54 min
Bit rate                                 : 2 112 kb/s
Width                                    : 1 044 pixels
Height                                   : 564 pixels
Display aspect ratio                     : 1.85:1
Frame rate mode                          : Constant
Frame rate                               : 24.000 FPS
Color space                              : YUV
Chroma subsampling                       : 4:2:0
Bit depth                                : 8 bits
Scan type                                : Progressive
Bits/(Pixel*Frame)                       : 0.149
Stream size                              : 1.69 GiB (85%)
Default                                  : Yes
Forced                                   : No
Color range                              : Limited
Color primaries                          : BT.709
Transfer characteristics                 : BT.709
Matrix coefficients                      : BT.709

Audio
ID                                       : 1
Format                                   : AC-3
Format/Info                              : Audio Coding 3
Commercial name                          : Dolby Digital
Codec ID                                 : A_AC3
Duration                                 : 1 h 54 min
Bit rate mode                            : Constant
Bit rate                                 : 384 kb/s
Channel(s)                               : 6 channels
Channel layout                           : L R C LFE Ls Rs
Sampling rate                            : 48.0 kHz
Frame rate                               : 31.250 FPS (1536 SPF)
Compression mode                         : Lossy
Stream size                              : 315 MiB (15%)
Title                                    : French
Language                                 : French
Service kind                             : Complete Main
Default                                  : Yes
Forced                                   : No

Menu
00:00:00.000                             : en:Chapter 01
00:10:44.083                             : en:Chapter 02
00:20:09.041                             : en:Chapter 03
00:31:18.583                             : en:Chapter 04
00:42:12.708                             : en:Chapter 05
00:51:51.666                             : en:Chapter 06
01:01:55.583                             : en:Chapter 07
01:12:01.000                             : en:Chapter 08
01:22:08.833                             : en:Chapter 09
01:33:43.416                             : en:Chapter 10
01:45:19.625                             : en:Chapter 11

Subtitulos

Grupo: SEiGHT
Versión: WEB H264 1080p
Tamaño: 6.0 GB
General
Unique ID                                : 199368305684002423789954799437600002481 (0x95FCF061821864E0D2D08F2AC17811B1)
Complete name                            : L.Homme.de.la.Cave.2021.FRENCH.1080p.WEB.H264-SEiGHT.mkv
Format                                   : Matroska
Format version                           : Version 4
File size                                : 5.63 GiB
Duration                                 : 1 h 54 min
Overall bit rate                         : 7 036 kb/s
Encoded date                             : UTC 2022-02-16 10:52:56
Writing application                      : mkvmerge v64.0.0 ('Willows') 64-bit
Writing library                          : libebml v1.4.2 + libmatroska v1.6.4

Video
ID                                       : 1
Format                                   : AVC
Format/Info                              : Advanced Video Codec
Format profile                           : [email protected]
Format settings                          : CABAC / 4 Ref Frames
Format settings, CABAC                   : Yes
Format settings, Reference frames        : 4 frames
Codec ID                                 : V_MPEG4/ISO/AVC
Duration                                 : 1 h 54 min
Bit rate                                 : 6 650 kb/s
Width                                    : 1 912 pixels
Height                                   : 1 032 pixels
Display aspect ratio                     : 1.85:1
Frame rate mode                          : Constant
Frame rate                               : 24.000 FPS
Color space                              : YUV
Chroma subsampling                       : 4:2:0
Bit depth                                : 8 bits
Scan type                                : Progressive
Bits/(Pixel*Frame)                       : 0.140
Stream size                              : 5.32 GiB (95%)
Default                                  : Yes
Forced                                   : No
Color range                              : Limited
Color primaries                          : BT.709
Transfer characteristics                 : BT.709
Matrix coefficients                      : BT.709

Audio
ID                                       : 2
Format                                   : AC-3
Format/Info                              : Audio Coding 3
Commercial name                          : Dolby Digital
Codec ID                                 : A_AC3
Duration                                 : 1 h 54 min
Bit rate mode                            : Constant
Bit rate                                 : 384 kb/s
Channel(s)                               : 6 channels
Channel layout                           : L R C LFE Ls Rs
Sampling rate                            : 48.0 kHz
Frame rate                               : 31.250 FPS (1536 SPF)
Compression mode                         : Lossy
Stream size                              : 315 MiB (5%)
Title                                    : French
Language                                 : French
Service kind                             : Complete Main
Default                                  : Yes
Forced                                   : No

Menu
00:00:00.000                             : en:Chapter 01
00:10:44.083                             : en:Chapter 02
00:20:09.041                             : en:Chapter 03
00:31:18.583                             : en:Chapter 04
00:42:12.708                             : en:Chapter 05
00:51:51.666                             : en:Chapter 06
01:01:55.583                             : en:Chapter 07
01:12:01.000                             : en:Chapter 08
01:22:08.833                             : en:Chapter 09
01:33:43.416                             : en:Chapter 10
01:45:19.625                             : en:Chapter 11

Subtitulos

Trailer