64
PUNTOS
Calificar
CALIFICA
Calificar
Califica y/o escribe un comentario sobre la película.
Comentarios en el foroFORO

La place d'une autre (2022)

Nelie huye de su miserable existencia para ser enfermera de primera línea en 1914. Un día toma la identidad de Rose, una joven de una buena familia que muere delante de ella. Se presenta en la casa de Madame de Lengwil para convertirse en la lectora de esta mujer rica. Su mentira funciona mejor de lo que esperaba.
Director Aurélia Georges
Actores Lyna Khoudri, Sabine Azéma, Maud Wyler
Duración 112 min
País France
Streaming (Servicio externo)
Grupo: SEiGHT
Versión: WEB H264 1080p
Tamaño: 5.7 GB
General
Unique ID                                : 169001042474334601841219683737162399765 (0x7F246AB597F458043576D6C097A2C015)
Complete name                            : La.Place.D.Une.Autre.2021.FRENCH.1080p.WEB.H264-SEiGHT.mkv
Format                                   : Matroska
Format version                           : Version 4
File size                                : 5.29 GiB
Duration                                 : 1 h 47 min
Overall bit rate                         : 7 059 kb/s
Encoded date                             : UTC 2022-05-05 10:37:06
Writing application                      : mkvmerge v67.0.0 ('Under Stars') 64-bit
Writing library                          : libebml v1.4.2 + libmatroska v1.6.4

Video
ID                                       : 1
Format                                   : AVC
Format/Info                              : Advanced Video Codec
Format profile                           : [email protected]
Format settings                          : CABAC / 4 Ref Frames
Format settings, CABAC                   : Yes
Format settings, Reference frames        : 4 frames
Codec ID                                 : V_MPEG4/ISO/AVC
Duration                                 : 1 h 47 min
Bit rate                                 : 6 673 kb/s
Width                                    : 1 796 pixels
Height                                   : 1 076 pixels
Display aspect ratio                     : 5:3
Frame rate mode                          : Constant
Frame rate                               : 25.000 FPS
Color space                              : YUV
Chroma subsampling                       : 4:2:0
Bit depth                                : 8 bits
Scan type                                : Progressive
Bits/(Pixel*Frame)                       : 0.138
Stream size                              : 5.00 GiB (95%)
Default                                  : Yes
Forced                                   : No
Color range                              : Limited
Color primaries                          : BT.709
Transfer characteristics                 : BT.709
Matrix coefficients                      : BT.709

Audio
ID                                       : 2
Format                                   : AC-3
Format/Info                              : Audio Coding 3
Commercial name                          : Dolby Digital
Codec ID                                 : A_AC3
Duration                                 : 1 h 47 min
Bit rate mode                            : Constant
Bit rate                                 : 384 kb/s
Channel(s)                               : 6 channels
Channel layout                           : L R C LFE Ls Rs
Sampling rate                            : 48.0 kHz
Frame rate                               : 31.250 FPS (1536 SPF)
Compression mode                         : Lossy
Stream size                              : 295 MiB (5%)
Title                                    : French
Language                                 : French
Service kind                             : Complete Main
Default                                  : Yes
Forced                                   : No

Menu
00:00:00.000                             : en:Chapter 01
00:09:58.040                             : en:Chapter 02
00:20:35.080                             : en:Chapter 03
00:31:03.960                             : en:Chapter 04
00:39:41.720                             : en:Chapter 05
00:51:57.120                             : en:Chapter 06
01:03:15.720                             : en:Chapter 07
01:12:56.480                             : en:Chapter 08
01:24:11.120                             : en:Chapter 09
01:35:02.040                             : en:Chapter 10
01:43:51.480                             : en:Chapter 11

Subtitulos

Grupo: EXTREME
Versión: WEB H264 720p
Tamaño: 2.8 GB
General
Unique ID                                : 235157155009863506253804406812548762197 (0xB0E99EE2B9762D017D25193F09F38A55)
Complete name                            : La.Place.D.Une.Autre.2021.FRENCH.720p.WEB.H264-EXTREME.mkv
Format                                   : Matroska
Format version                           : Version 4
File size                                : 2.64 GiB
Duration                                 : 1 h 47 min
Overall bit rate                         : 3 519 kb/s
Encoded date                             : UTC 2022-05-05 17:50:43
Writing application                      : mkvmerge v64.0.0 ('Willows') 64-bit
Writing library                          : libebml v1.4.2 + libmatroska v1.6.4

Video
ID                                       : 1
Format                                   : AVC
Format/Info                              : Advanced Video Codec
Format profile                           : [email protected]
Format settings                          : CABAC / 4 Ref Frames
Format settings, CABAC                   : Yes
Format settings, Reference frames        : 4 frames
Codec ID                                 : V_MPEG4/ISO/AVC
Duration                                 : 1 h 47 min
Bit rate                                 : 3 134 kb/s
Width                                    : 1 280 pixels
Height                                   : 768 pixels
Display aspect ratio                     : 5:3
Frame rate mode                          : Constant
Frame rate                               : 25.000 FPS
Color space                              : YUV
Chroma subsampling                       : 4:2:0
Bit depth                                : 8 bits
Scan type                                : Progressive
Bits/(Pixel*Frame)                       : 0.128
Stream size                              : 2.35 GiB (89%)
Writing library                          : x264 core 157 r2935 545de2f
Encoding settings                        : cabac=1 / ref=3 / deblock=1:-1:-1 / analyse=0x3:0x113 / me=hex / subme=7 / psy=1 / psy_rd=1.00:0.15 / mixed_ref=1 / me_range=16 / chroma_me=1 / trellis=1 / 8x8dct=1 / cqm=0 / deadzone=21,11 / fast_pskip=1 / chroma_qp_offset=-3 / threads=24 / lookahead_threads=4 / sliced_threads=0 / nr=0 / decimate=1 / interlaced=0 / bluray_compat=0 / constrained_intra=0 / bframes=3 / b_pyramid=2 / b_adapt=1 / b_bias=0 / direct=1 / weightb=1 / open_gop=0 / weightp=2 / keyint=250 / keyint_min=25 / scenecut=40 / intra_refresh=0 / rc_lookahead=40 / rc=crf / mbtree=1 / crf=18.0 / qcomp=0.60 / qpmin=0 / qpmax=69 / qpstep=4 / vbv_maxrate=62500 / vbv_bufsize=78125 / crf_max=0.0 / nal_hrd=none / filler=0 / ip_ratio=1.40 / aq=1:1.00
Default                                  : Yes
Forced                                   : No

Audio
ID                                       : 2
Format                                   : AC-3
Format/Info                              : Audio Coding 3
Commercial name                          : Dolby Digital
Codec ID                                 : A_AC3
Duration                                 : 1 h 47 min
Bit rate mode                            : Constant
Bit rate                                 : 384 kb/s
Channel(s)                               : 6 channels
Channel layout                           : L R C LFE Ls Rs
Sampling rate                            : 48.0 kHz
Frame rate                               : 31.250 FPS (1536 SPF)
Compression mode                         : Lossy
Stream size                              : 295 MiB (11%)
Title                                    : French
Language                                 : French
Service kind                             : Complete Main
Default                                  : Yes
Forced                                   : No

Menu
00:00:00.000                             : en:Chapter 01
00:09:58.040                             : en:Chapter 02
00:20:35.080                             : en:Chapter 03
00:31:03.960                             : en:Chapter 04
00:39:41.720                             : en:Chapter 05
00:51:57.120                             : en:Chapter 06
01:03:15.720                             : en:Chapter 07
01:12:56.480                             : en:Chapter 08
01:24:11.120                             : en:Chapter 09
01:35:02.040                             : en:Chapter 10
01:43:51.480                             : en:Chapter 11

Trailer