66
PUNTOS
Calificar
CALIFICA
Calificar
Califica y/o escribe un comentario sobre la película.
Comentarios en el foroFORO

Le milieu de l'horizon (2021)

Verano del 76. Una ola de calor está provocando que el campo suizo se seque a toda velocidad. En un ambiente sofocante, Gus, que tiene trece años y es hijo de un granjero, ve cómo su entorno familiar y su inocencia se resquebrajan: está viviendo el fin de un mundo.
Director Delphine Lehericey
Actores Luc Bruchez, Laetitia Casta, Thibaut Evrard
Duración 90 min
País Switzerland, Belgium
Streaming (Servicio externo)
Grupo: EXTREME
Versión: WEB H264 720p
Tamaño: 2.1 GB
General
Unique ID                                : 231838328129806484874955228863976023285 (0xAE6A70164B6327B80CE524316C65A4F5)
Complete name                            : Le.milieu.de.l.horizon.2019.FRENCH.720p.WEB.H264-EXTREME.mkv
Format                                   : Matroska
Format version                           : Version 4
File size                                : 1.97 GiB
Duration                                 : 1 h 28 min
Overall bit rate                         : 3 205 kb/s
Encoded date                             : UTC 2022-04-11 19:07:06
Writing application                      : mkvmerge v50.0.0 ('Awakenings') 64-bit
Writing library                          : libebml v1.4.0 + libmatroska v1.6.2

Video
ID                                       : 1
Format                                   : AVC
Format/Info                              : Advanced Video Codec
Format profile                           : [email protected]
Format settings                          : CABAC / 5 Ref Frames
Format settings, CABAC                   : Yes
Format settings, Reference frames        : 5 frames
Codec ID                                 : V_MPEG4/ISO/AVC
Duration                                 : 1 h 28 min
Bit rate                                 : 2 819 kb/s
Width                                    : 1 304 pixels
Height                                   : 704 pixels
Display aspect ratio                     : 1.85:1
Frame rate mode                          : Constant
Frame rate                               : 25.000 FPS
Color space                              : YUV
Chroma subsampling                       : 4:2:0
Bit depth                                : 8 bits
Scan type                                : Progressive
Bits/(Pixel*Frame)                       : 0.123
Stream size                              : 1.73 GiB (88%)
Default                                  : Yes
Forced                                   : No
Color range                              : Limited
Color primaries                          : BT.709
Transfer characteristics                 : BT.709
Matrix coefficients                      : BT.709

Audio
ID                                       : 2
Format                                   : AC-3
Format/Info                              : Audio Coding 3
Commercial name                          : Dolby Digital
Codec ID                                 : A_AC3
Duration                                 : 1 h 28 min
Bit rate mode                            : Constant
Bit rate                                 : 384 kb/s
Channel(s)                               : 6 channels
Channel layout                           : L R C LFE Ls Rs
Sampling rate                            : 48.0 kHz
Frame rate                               : 31.250 FPS (1536 SPF)
Compression mode                         : Lossy
Stream size                              : 242 MiB (12%)
Title                                    : French
Language                                 : French
Service kind                             : Complete Main
Default                                  : Yes
Forced                                   : Yes

Subtitulos

Grupo: EXTREME
Versión: WEB H264 1080p
Tamaño: 3.6 GB
General
Unique ID                                : 217866865151551321193860919684916384465 (0xA3E7A1C760BC19B91C9DA4BA579912D1)
Complete name                            : Le.milieu.de.l.horizon.2019.FRENCH.1080p.WEB.H264-EXTREME.mkv
Format                                   : Matroska
Format version                           : Version 4
File size                                : 3.34 GiB
Duration                                 : 1 h 28 min
Overall bit rate                         : 5 435 kb/s
Encoded date                             : UTC 2022-04-11 19:07:39
Writing application                      : mkvmerge v50.0.0 ('Awakenings') 64-bit
Writing library                          : libebml v1.4.0 + libmatroska v1.6.2

Video
ID                                       : 1
Format                                   : AVC
Format/Info                              : Advanced Video Codec
Format profile                           : [email protected]
Format settings                          : CABAC / 4 Ref Frames
Format settings, CABAC                   : Yes
Format settings, Reference frames        : 4 frames
Codec ID                                 : V_MPEG4/ISO/AVC
Duration                                 : 1 h 28 min
Bit rate                                 : 5 049 kb/s
Width                                    : 1 912 pixels
Height                                   : 1 032 pixels
Display aspect ratio                     : 1.85:1
Frame rate mode                          : Constant
Frame rate                               : 25.000 FPS
Color space                              : YUV
Chroma subsampling                       : 4:2:0
Bit depth                                : 8 bits
Scan type                                : Progressive
Bits/(Pixel*Frame)                       : 0.102
Stream size                              : 3.10 GiB (93%)
Default                                  : Yes
Forced                                   : No
Color range                              : Limited
Color primaries                          : BT.709
Transfer characteristics                 : BT.709
Matrix coefficients                      : BT.709

Audio
ID                                       : 2
Format                                   : AC-3
Format/Info                              : Audio Coding 3
Commercial name                          : Dolby Digital
Codec ID                                 : A_AC3
Duration                                 : 1 h 28 min
Bit rate mode                            : Constant
Bit rate                                 : 384 kb/s
Channel(s)                               : 6 channels
Channel layout                           : L R C LFE Ls Rs
Sampling rate                            : 48.0 kHz
Frame rate                               : 31.250 FPS (1536 SPF)
Compression mode                         : Lossy
Stream size                              : 242 MiB (7%)
Title                                    : French
Language                                 : French
Service kind                             : Complete Main
Default                                  : Yes
Forced                                   : Yes

Subtitulos

Trailer