60
PUNTOS
Calificar
CALIFICA
Calificar
Califica y/o escribe un comentario sobre la película.
Comentarios en el foroFORO

True Things (2022)

Instalada en una vida rutinaria, Kate Perkin (Ruth Wilson) se embarca en una relación sexual clandestina con un hombre que acaba de salir de la cárcel. Blond (Tom Burke) es un tipo carismático pero poco recomendable, y despierta en Kate sensaciones que ella creía muertas desde hace tiempo.
Director Harry Wootliff
Actores Ruth Wilson, Tom Burke, Hayley Squires
Duración 102 min
País United Kingdom
Streaming (Servicio externo)
Grupo: SMURF
Versión: WEB-DL H264 1080p
Tamaño: 6.8 GB
Video
ID : 1
Format : AVC
Format/Info : Advanced Video Codec
Format profile : [email protected]
Format settings : CABAC / 4 Ref Frames
Format settings, CABAC : Yes
Format settings, Reference frames : 4 frames
Codec ID : V_MPEG4/ISO/AVC
Duration : 1 h 41 min
Bit rate mode : Constant
Bit rate : 9 126 kb/s
Nominal bit rate : 10 000 kb/s
Width : 1 440 pixels
Height : 1 080 pixels
Display aspect ratio : 4:3
Frame rate mode : Constant
Frame rate : 24.000 FPS
Color space : YUV
Chroma subsampling : 4:2:0
Bit depth : 8 bits
Scan type : Progressive
Bits/(Pixel*Frame) : 0.245
Stream size : 6.48 GiB (96%)
Default : Yes
Forced : No
Color range : Limited
Color primaries : BT.709
Transfer characteristics : BT.709
Matrix coefficients : BT.709

Audio
ID : 2
Format : AC-3
Format/Info : Audio Coding 3
Commercial name : Dolby Digital
Codec ID : A_AC3
Duration : 1 h 41 min
Bit rate mode : Constant
Bit rate : 384 kb/s
Channel(s) : 6 channels
Channel layout : L R C LFE Ls Rs
Sampling rate : 48.0 kHz
Frame rate : 31.250 FPS (1536 SPF)
Compression mode : Lossy
Stream size : 279 MiB (4%)
Language : English
Service kind : Complete Main
Default : Yes
Forced : No

Text
ID : 3
Format : UTF-8
Codec ID : S_TEXT/UTF8
Codec ID/Info : UTF-8 Plain Text
Duration : 1 h 28 min
Bit rate : 32 b/s
Count of elements : 856
Stream size : 20.9 KiB (0%)
Language : English
Default : No
Forced : No

Menu
01:41:35.000 : en:Credits

Subtitulos

Trailer