74
PUNTOS
Calificar
CALIFICA
Calificar
Califica y/o escribe un comentario sobre la película.
Comentarios en el foroFORO

L'événement (2021)

Francia, 1963. Anne es una joven estudiante brillante con un futuro prometedor por delante. Pero cuando se queda embarazada, ve cómo desaparece la oportunidad de terminar sus estudios y escapar de las limitaciones de su entorno social. Ante la proximidad de sus exámenes finales y conforme va creciendo su vientre, Anne decide actuar, aunque tenga que enfrentarse a la vergüenza y al dolor, aunque tenga que arriesgarse a ir a la cárcel para hacerlo...
Director Audrey Diwan
Actores Anamaria Vartolomei, Kacey Mottet Klein, Lu?na Bajrami
Duración 100 min
País France
Streaming (Servicio externo)
Grupo: EA
Versión: BDRip x264 1080p
Tamaño: 11.7 GB
Video
ID : 1
Format : AVC
Format/Info : Advanced Video Codec
Format profile : [email protected]
Format settings : CABAC / 5 Ref Frames
Format settings, CABAC : Yes
Format settings, Reference frames : 5 frames
Codec ID : V_MPEG4/ISO/AVC
Duration : 1 h 39 min
Bit rate : 15.8 Mb/s
Width : 1 474 pixels
Height : 1 080 pixels
Display aspect ratio : 4:3
Frame rate mode : Constant
Frame rate : 24.000 FPS
Color space : YUV
Chroma subsampling : 4:2:0
Bit depth : 8 bits
Scan type : Progressive
Bits/(Pixel*Frame) : 0.413
Stream size : 10.9 GiB (94%)
Title : -EA
Writing library : x264 core 164 r3085+55M 938b6d0 t_mod_New [(8 & 10)[email protected] X86_64]
Encoding settings : cabac=1 / ref=5 / deblock=1:-3:-3 / analyse=0x3:0x133 / me=umh / subme=10 / psy=1 / fade_compensate=0.00 / psy_rd=0.95:0.00 / mixed_ref=1 / me_range=32 / chroma_me=1 / trellis=2 / 8x8dct=1 / cqm=0 / deadzone=21,11 / fast_pskip=0 / chroma_qp_offset=-2 / threads=18 / lookahead_threads=4 / sliced_threads=0 / nr=0 / decimate=0 / interlaced=0 / bluray_compat=0 / constrained_intra=0 / fgo=0 / bframes=11 / b_pyramid=2 / b_adapt=2 / b_bias=0 / direct=3 / weightb=1 / open_gop=0 / weightp=2 / keyint=240 / keyint_min=24 / scenecut=40 / intra_refresh=0 / rc_lookahead=60 / rc=crf / mbtree=0 / crf=18.1000 / qcomp=0.65 / qpmin=0:0:0 / qpmax=69:69:69 / qpstep=4 / vbv_maxrate=62500 / vbv_bufsize=78125 / crf_max=0.0 / nal_hrd=none / filler=0 / ip_ratio=1.35 / pb_ratio=1.25 / aq=3:0.80 / aq-sensitivity=10.00 / aq-factor=1.00:1.00:1.00 / aq2=0 / aq3=0
Language : French
Default : Yes
Forced : No
Color range : Limited
Color primaries : BT.709
Transfer characteristics : BT.709
Matrix coefficients : BT.709

Audio
ID : 2
Format : E-AC-3
Format/Info : Enhanced AC-3
Commercial name : Dolby Digital Plus
Codec ID : A_EAC3
Duration : 1 h 39 min
Bit rate mode : Constant
Bit rate : 1 024 kb/s
Channel(s) : 6 channels
Channel layout : L R C LFE Ls Rs
Sampling rate : 48.0 kHz
Frame rate : 31.250 FPS (1536 SPF)
Compression mode : Lossy
Stream size : 728 MiB (6%)
Language : French
Service kind : Complete Main
Default : Yes
Forced : No

Text #1
ID : 3
Format : UTF-8
Codec ID : S_TEXT/UTF8
Codec ID/Info : UTF-8 Plain Text
Duration : 1 h 33 min
Bit rate : 26 b/s
Count of elements : 833
Stream size : 18.3 KiB (0%)
Title : srt
Language : English
Default : Yes
Forced : No

Text #2
ID : 4
Format : PGS
Muxing mode : zlib
Codec ID : S_HDMV/PGS
Codec ID/Info : Picture based subtitle format used on BDs/HD-DVDs
Duration : 1 h 39 min
Bit rate : 17.5 kb/s
Count of elements : 1910
Stream size : 12.4 MiB (0%)
Title : sup
Language : French
Default : Yes
Forced : No

Menu
00:00:00.000 : :Chapter 01
00:08:05.833 : :Chapter 02
00:19:17.000 : :Chapter 03
00:27:13.250 : :Chapter 04
00:35:43.500 : :Chapter 05
00:43:30.000 : :Chapter 06
00:50:38.042 : :Chapter 07
00:59:16.625 : :Chapter 08
01:05:25.208 : :Chapter 09
01:13:25.292 : :Chapter 10
01:23:13.833 : :Chapter 11
01:34:10.208 : :Chapter 12

Subtitulos

Trailer