57
PUNTOS
Calificar
CALIFICA
Calificar
Califica y/o escribe un comentario sobre la película.
Comentarios en el foroFORO

Luzifer (2021)

Inspirada en una historia real de exorcismo. Johannes, un hombre con el corazón de un niño, vive aislado en una cabaña alpina con su madre. El día a día está regido por rezos y rituales. Pero, de repente, la modernidad se entromete en su mundo de naturaleza y alabanza divina. Un complejo turístico amenaza con envenenar su paraíso y despertar al demonio.
Director Peter Brunner
Actores Susanne Jensen, Franz Rogowski, Theo Blaickner
Duración 103 min
País Austria
Streaming (Servicio externo)
Grupo: PLiSSKEN
Versión: WEB-DL H264 1080p
Tamaño: 6.4 GB
Video
ID : 1
Format : AVC
Format/Info : Advanced Video Codec
Format profile : [email protected]
Format settings : CABAC / 4 Ref Frames
Format settings, CABAC : Yes
Format settings, Reference frames : 4 frames
Codec ID : V_MPEG4/ISO/AVC
Duration : 1 h 43 min
Bit rate mode : Constant
Bit rate : 8 716 kb/s
Nominal bit rate : 10 000 kb/s
Width : 1 920 pixels
Height : 800 pixels
Display aspect ratio : 2.40:1
Frame rate mode : Constant
Frame rate : 24.000 FPS
Color space : YUV
Chroma subsampling : 4:2:0
Bit depth : 8 bits
Scan type : Progressive
Bits/(Pixel*Frame) : 0.236
Stream size : 6.27 GiB (97%)
Default : Yes
Forced : No
Color range : Limited
Color primaries : BT.709
Transfer characteristics : BT.709
Matrix coefficients : BT.709

Audio
ID : 2
Format : E-AC-3
Format/Info : Enhanced AC-3
Commercial name : Dolby Digital Plus
Codec ID : A_EAC3
Duration : 1 h 43 min
Bit rate mode : Constant
Bit rate : 224 kb/s
Channel(s) : 2 channels
Channel layout : L R
Sampling rate : 48.0 kHz
Frame rate : 31.250 FPS (1536 SPF)
Compression mode : Lossy
Stream size : 165 MiB (3%)
Language : German
Service kind : Complete Main
Default : Yes
Forced : No

Subtitulos

Trailer