61
PUNTOS
Calificar
CALIFICA
Calificar
Califica y/o escribe un comentario sobre la película.
Comentarios en el foroFORO

All the Old Knives (2022)

Cuando la CIA descubre que uno de sus agentes filtró la información que costó la vida a más de 100 personas, el veterano agente Henry Pelham (Chris Pine) es asignado para descubrir quién es el topo entre sus antiguos compa?eros en la oficina de la agencia en Viena. Durante su investigación se reencuentra con su antigua colega y ex amante Celia Harrison (Thandiwe Newton). La pareja se verá obligada a difuminar los límites entre la profesión y la pasión mientras reexaminan la misión en la que participaron 6 a?os atrás.
Director Janus Metz
Actores Goksin Erdemli, Kasia Madera, Chris Pine
Duración 101 min
País United States
Streaming (Servicio externo)
Grupo: NAISU
Versión: WEB H264 1080p
Tamaño: 3.7 GB
Video
ID : 1
Format : AVC
Format/Info : Advanced Video Codec
Format profile : [email protected]
Format settings : CABAC / 4 Ref Frames
Format settings, CABAC : Yes
Format settings, Reference frames : 4 frames
Codec ID : V_MPEG4/ISO/AVC
Duration : 1 h 42 min
Bit rate mode : Constant
Bit rate : 4 437 kb/s
Nominal bit rate : 10 000 kb/s
Width : 1 920 pixels
Height : 800 pixels
Display aspect ratio : 2.40:1
Frame rate mode : Constant
Frame rate : 23.976 (24000/1001) FPS
Color space : YUV
Chroma subsampling : 4:2:0
Bit depth : 8 bits
Scan type : Progressive
Bits/(Pixel*Frame) : 0.120
Stream size : 3.18 GiB (86%)
Default : Yes
Forced : No
Color range : Limited
Color primaries : BT.709
Transfer characteristics : BT.709
Matrix coefficients : BT.709

Audio
ID : 2
Format : E-AC-3
Format/Info : Enhanced AC-3
Commercial name : Dolby Digital Plus
Codec ID : A_EAC3
Duration : 1 h 42 min
Bit rate mode : Constant
Bit rate : 640 kb/s
Channel(s) : 6 channels
Channel layout : L R C LFE Ls Rs
Sampling rate : 48.0 kHz
Frame rate : 31.250 FPS (1536 SPF)
Compression mode : Lossy
Stream size : 469 MiB (12%)
Language : English
Service kind : Complete Main
Default : Yes
Forced : No

Subtitulos

Trailer