64
PUNTOS
Calificar
CALIFICA
Calificar
Califica y/o escribe un comentario sobre la película.
Comentarios en el foroFORO

Mideunaiteu (2021)

Kyung Mi, quien tiene problemas de audición, trabaja como consultora de lenguaje de señas en un centro de llamadas. Una noche en Seúl se encuentra con el asesino en serie Do Sik y comienza una persecución aterradora.
Director Oh-Seung Kwon
Actores Wi Ha-joon, Park Hoon, Ki-joo Jin
Duración 103 min
País South Korea
Streaming (Servicio externo)
Grupo: SCARE
Versión: BDRip x264 720p
Tamaño: 3.5 GB
Midnight.2021.720p.BluRay.x264-SCARE

https://www.imdb.com/title/tt14757872

Picture -----> CRF 17 (4160 Kbps)  12.57% of source (33110 Kbps)
Sound -------> Korean  AC3 5.1 (640 Kbps)
-------> Commentary  AAC 2.0 (84 Kbps)
Text --------> English (Forced)  English
Dimension ---> 3616 MB

Subtitulos

Grupo: SCARE
Versión: BDRip x264 1080p
Tamaño: 11.2 GB
Midnight.2021.1080p.BluRay.x264-SCARE

https://www.imdb.com/title/tt14757872

Picture -----> CRF 17 (13461 Kbps)  40.65% of source (33110 Kbps)
Sound -------> Korean  DTS-HD MA 5.1 (1976 Kbps)
-------> Commentary  AAC 2.0 (84 Kbps)
Text --------> English (Forced)  English
Dimension ---> 11474 MB

Subtitulos

Grupo: EA
Versión: BDRip x264 1080p
Tamaño: 12.6 GB
Video
ID : 1
Format : AVC
Format/Info : Advanced Video Codec
Format profile : [email protected]
Format settings : CABAC / 5 Ref Frames
Format settings, CABAC : Yes
Format settings, Reference frames : 5 frames
Codec ID : V_MPEG4/ISO/AVC
Duration : 1 h 43 min
Bit rate : 16.4 Mb/s
Width : 1 920 pixels
Height : 804 pixels
Display aspect ratio : 2.40:1
Frame rate mode : Constant
Frame rate : 23.976 (24000/1001) FPS
Color space : YUV
Chroma subsampling : 4:2:0
Bit depth : 8 bits
Scan type : Progressive
Bits/(Pixel*Frame) : 0.442
Stream size : 11.8 GiB (94%)
Title : -EA
Writing library : x264 core 164 r3085+55M 938b6d0 t_mod_New [(8 & 10)[email protected] X86_64]
Encoding settings : cabac=1 / ref=5 / deblock=1:-3:-3 / analyse=0x3:0x133 / me=umh / subme=10 / psy=1 / fade_compensate=0.00 / psy_rd=0.96:0.00 / mixed_ref=1 / me_range=32 / chroma_me=1 / trellis=2 / 8x8dct=1 / cqm=0 / deadzone=21,11 / fast_pskip=0 / chroma_qp_offset=-2 / threads=18 / lookahead_threads=4 / sliced_threads=0 / nr=0 / decimate=0 / interlaced=0 / bluray_compat=0 / constrained_intra=0 / fgo=0 / bframes=14 / b_pyramid=2 / b_adapt=2 / b_bias=0 / direct=3 / weightb=1 / open_gop=0 / weightp=2 / keyint=240 / keyint_min=23 / scenecut=40 / intra_refresh=0 / rc_lookahead=60 / rc=crf / mbtree=0 / crf=17.9000 / qcomp=0.65 / qpmin=0:0:0 / qpmax=69:69:69 / qpstep=4 / vbv_maxrate=62500 / vbv_bufsize=78125 / crf_max=0.0 / nal_hrd=none / filler=0 / ip_ratio=1.35 / pb_ratio=1.25 / aq=3:0.80 / aq-sensitivity=10.00 / aq-factor=1.00:1.00:1.00 / aq2=0 / aq3=0
Language : Korean
Default : Yes
Forced : No
Color range : Limited
Color primaries : BT.709
Transfer characteristics : BT.709
Matrix coefficients : BT.709

Audio #1
ID : 2
Format : E-AC-3
Format/Info : Enhanced AC-3
Commercial name : Dolby Digital Plus
Codec ID : A_EAC3
Duration : 1 h 43 min
Bit rate mode : Constant
Bit rate : 1 024 kb/s
Channel(s) : 6 channels
Channel layout : L R C LFE Ls Rs
Sampling rate : 48.0 kHz
Frame rate : 31.250 FPS (1536 SPF)
Compression mode : Lossy
Stream size : 756 MiB (6%)
Language : Korean
Service kind : Complete Main
Default : Yes
Forced : No

Audio #2
ID : 3
Format : AAC LC
Format/Info : Advanced Audio Codec Low Complexity
Codec ID : A_AAC-2
Duration : 1 h 43 min
Bit rate : 51.7 kb/s
Channel(s) : 2 channels
Channel layout : L R
Sampling rate : 48.0 kHz
Frame rate : 46.875 FPS (1024 SPF)
Compression mode : Lossy
Delay relative to video : 20 ms
Stream size : 38.2 MiB (0%)
Title : Commentary with Kat Ellinger
Language : English
Default : No
Forced : No

Text #1
ID : 4
Format : UTF-8
Codec ID : S_TEXT/UTF8
Codec ID/Info : UTF-8 Plain Text
Duration : 1 h 38 min
Bit rate : 31 b/s
Count of elements : 886
Stream size : 23.2 KiB (0%)
Title : srt
Language : English
Default : Yes
Forced : No

Text #2
ID : 5
Format : PGS
Muxing mode : zlib
Codec ID : S_HDMV/PGS
Codec ID/Info : Picture based subtitle format used on BDs/HD-DVDs
Duration : 1 h 38 min
Bit rate : 17.6 kb/s
Count of elements : 1576
Stream size : 12.4 MiB (0%)
Title : sup
Language : English
Default : No
Forced : No

Menu
00:00:00.000 : :Chapter 01
00:09:52.091 : :Chapter 02
00:19:53.526 : :Chapter 03
00:30:54.686 : :Chapter 04
00:37:58.776 : :Chapter 05
00:50:01.373 : :Chapter 06
00:56:07.823 : :Chapter 07
01:07:45.019 : :Chapter 08
01:20:24.820 : :Chapter 09
01:29:38.498 : :Chapter 10
01:38:42.625 : :Chapter 11
Trailer