72
PUNTOS
Calificar
CALIFICA
Calificar
Califica y/o escribe un comentario sobre la película.
Comentarios en el foroFORO

The Outfit (2022)

Chicago. 1956. Leonard (Rylance), es un sastre inglés que confeccionaba trajes en la mundialmente famosa Savile Row de Londres. Después de una tragedia personal termina en Chicago, trabajando en una peque?a sastrería en una zona difícil de la ciudad donde hace ropa elegante para las únicas personas a su alrededor que pueden pagarla: una familia de gángsters. Esta familia de mafiosos intentará aprovecharse de la naturaleza gentil y complaciente de Leonard, que junto a su asistenta Mable (Zoey Deutch) se verá implicado con la mafia de una manera cada vez más grave.
Director Graham Moore
Actores Zoey Deutch, Mark Rylance, Dylan O'Brien
Duración 105 min
País United States
Streaming (Servicio externo)
Grupo: PiGNUS
Versión: BDRip x264 720p
Tamaño: 3.5 GB
Name: The.Outfit.2022.720p.BluRay.x264-PiGNUS

Release date: 03-05-2022

IMDB link: https://www.imdb.com/title/tt14114802

Resolution: 1280x640
Audio: English AC3 6ch 640 kbps
Video: 4131 kbps, CRF 14
Source: 36718 kbps
Grupo: PiGNUS
Versión: BDRip x264 1080p
Tamaño: 9.6 GB
Name: The.Outfit.2022.1080p.BluRay.x264-PiGNUS

Release date: 03-05-2022

IMDB link: https://www.imdb.com/title/tt14114802

Resolution: 1920x960
Audio: English DTS-HD Master 6ch 3357 kbps
Video: 9734 kbps, CRF 15
Source: 36718 kbps
Grupo: MT
Versión: BDRip x264 1080p
Tamaño: 8.9 GB
Video
ID : 1
Format : AVC
Format/Info : Advanced Video Codec
Format profile : [email protected]
Format settings : CABAC / 4 Ref Frames
Format settings, CABAC : Yes
Format settings, Reference frames : 4 frames
Codec ID : V_MPEG4/ISO/AVC
Duration : 1 h 44 min
Bit rate : 10.6 Mb/s
Width : 1 920 pixels
Height : 960 pixels
Display aspect ratio : 2.000
Frame rate mode : Constant
Frame rate : 23.976 (24000/1001) FPS
Color space : YUV
Chroma subsampling : 4:2:0
Bit depth : 8 bits
Scan type : Progressive
Bits/(Pixel*Frame) : 0.240
Stream size : 7.76 GiB (88%)
Writing library : x264 core 157 r2938 2b00a84 [email protected] Mod
Encoding settings : cabac=1 / ref=4 / deblock=1:-3:-3 / analyse=0x3:0x133 / me=umh / subme=10 / psy=1 / psy_rd=1.05:0.00 / mixed_ref=1 / me_range=32 / chroma_me=1 / trellis=2 / 8x8dct=1 / cqm=0 / deadzone=21,11 / fast_pskip=0 / chroma_qp_offset=-2 / threads=12 / lookahead_threads=2 / sliced_threads=0 / nr=0 / decimate=0 / interlaced=0 / bluray_compat=0 / constrained_intra=0 / bframes=8 / b_pyramid=2 / b_adapt=2 / b_bias=0 / direct=3 / weightb=1 / open_gop=0 / weightp=2 / keyint=250 / keyint_min=24 / scenecut=40 / intra_refresh=0 / rc_lookahead=250 / rc=crf / mbtree=0 / crf=16.8 / qcomp=0.60 / qpmin=0 / qpmax=69 / qpstep=4 / vbv_maxrate=62500 / vbv_bufsize=78125 / crf_max=0.0 / nal_hrd=none / filler=0 / ip_ratio=1.30 / pb_ratio=1.20 / aq=3:0.80
Language : English
Default : Yes
Forced : No
Color range : Limited
Color primaries : BT.709
Matrix coefficients : BT.709

Audio
ID : 2
Format : DTS
Format/Info : Digital Theater Systems
Codec ID : A_DTS
Duration : 1 h 44 min
Bit rate mode : Constant
Bit rate : 1 509 kb/s
Channel(s) : 6 channels
Channel layout : C L R Ls Rs LFE
Sampling rate : 48.0 kHz
Frame rate : 93.750 FPS (512 SPF)
Bit depth : 24 bits
Compression mode : Lossy
Stream size : 1.11 GiB (12%)
Language : English
Default : Yes
Forced : No

Text #1
ID : 3
Format : UTF-8
Codec ID : S_TEXT/UTF8
Codec ID/Info : UTF-8 Plain Text
Duration : 1 h 38 min
Bit rate : 57 b/s
Count of elements : 1249
Stream size : 41.2 KiB (0%)
Language : English
Default : Yes
Forced : No

Text #2
ID : 4
Format : UTF-8
Codec ID : S_TEXT/UTF8
Codec ID/Info : UTF-8 Plain Text
Duration : 1 h 39 min
Bit rate : 63 b/s
Count of elements : 1412
Stream size : 45.9 KiB (0%)
Title : SDH
Language : English
Default : No
Forced : No

Menu
00:00:00.000 : en:Chapter 01
00:05:45.929 : en:Chapter 02
00:10:16.074 : en:Chapter 03
00:15:10.660 : en:Chapter 04
00:18:41.746 : en:Chapter 05
00:20:57.131 : en:Chapter 06
00:28:42.429 : en:Chapter 07
00:32:40.584 : en:Chapter 08
00:36:29.354 : en:Chapter 09
00:40:48.988 : en:Chapter 10
00:43:23.976 : en:Chapter 11
00:50:55.886 : en:Chapter 12
00:57:51.385 : en:Chapter 13
01:04:17.270 : en:Chapter 14
01:09:23.326 : en:Chapter 15
01:14:58.411 : en:Chapter 16
01:21:42.481 : en:Chapter 17
01:27:56.980 : en:Chapter 18
01:32:29.669 : en:Chapter 19
01:39:29.338 : en:Chapter 20

Subtitulos

Trailer