68
PUNTOS
Calificar
CALIFICA
Calificar
Califica y/o escribe un comentario sobre la película.
Comentarios en el foroFORO

After Yang (2021)

Un hombre y su hija intentan salvar por todos los medios posibles la vida de Yang, un robot mitad asistente y mitad cuidadora de niños, al que consideran un miembro más de su familia.
Director Kogonada
Actores Colin Farrell, Jodie Turner-Smith, Malea Emma Tjandrawidjaja
Duración 96 min
País United States
Streaming (Servicio externo)
Grupo: PiGNUS
Versión: BDRip x264 720p
Tamaño: 4.2 GB
Name: After.Yang.2021.720p.BluRay.x264-PiGNUS

Release date: 22-06-2022

IMDB link: https://www.imdb.com/title/tt8633464

Resolution: 1280x720
Audio: English AC3 6ch 640 kbps
Video: 5604 kbps, CRF 15
Source: 35815 kbps

Subtitulos

Grupo: PiGNUS
Versión: BDRip x264 1080p
Tamaño: 10.6 GB
Name: After.Yang.2021.1080p.BluRay.x264-PiGNUS

Release date: 22-06-2022

IMDB link: https://www.imdb.com/title/tt8633464

Resolution: 1920x1080
Audio: English DTS-HD Master 6ch 3124 kbps
Video: 12735 kbps, CRF 16
Source: 35815 kbps

Subtitulos

Grupo: TEPES
Versión: WEB-DL H264 1080p
Tamaño: 5.5 GB
Video
ID : 1
Format : AVC
Format/Info : Advanced Video Codec
Format profile : [email protected]
Format settings : CABAC / 4 Ref Frames
Format settings, CABAC : Yes
Format settings, Reference frames : 4 frames
Codec ID : V_MPEG4/ISO/AVC
Duration : 1 h 36 min
Bit rate mode : Constant
Bit rate : 7 507 kb/s
Nominal bit rate : 10 000 kb/s
Width : 1 920 pixels
Height : 1 080 pixels
Display aspect ratio : 16:9
Frame rate mode : Constant
Frame rate : 23.976 (24000/1001) FPS
Color space : YUV
Chroma subsampling : 4:2:0
Bit depth : 8 bits
Scan type : Progressive
Bits/(Pixel*Frame) : 0.151
Stream size : 5.05 GiB (92%)
Default : Yes
Forced : No
Color range : Limited
Color primaries : BT.709
Transfer characteristics : BT.709
Matrix coefficients : BT.709

Audio
ID : 2
Format : E-AC-3
Format/Info : Enhanced AC-3
Commercial name : Dolby Digital Plus
Codec ID : A_EAC3
Duration : 1 h 36 min
Bit rate mode : Constant
Bit rate : 640 kb/s
Channel(s) : 6 channels
Channel layout : L R C LFE Ls Rs
Sampling rate : 48.0 kHz
Frame rate : 31.250 FPS (1536 SPF)
Compression mode : Lossy
Stream size : 441 MiB (8%)
Language : English
Service kind : Complete Main
Default : Yes
Forced : No

Subtitulos

Grupo: NAISU
Versión: WEB H264 720p
Tamaño: 2.5 GB
After.Yang.2022.720p.WEB.H264-NAISU

Size: 2560M
Files: 11F
Date: 2022-03-04
Duration: 1 h 35 min

Source: Web
Encoding: H264
Bitrate: 3 692 kb/s
Audio Format: E-AC-3 (Dolby Digital Plus)
Audio Rate: 640 kb/s @ 6 channels
Audio Lang: English
Sub count: 1
Subtitles: English
Trailer