76
PUNTOS
Calificar
CALIFICA
Calificar
Califica y/o escribe un comentario sobre la película.
Comentarios en el foroFORO

Licorice Pizza (2021)

Es la historia de Alana Kane y Gary Valentine, de cómo se conocen, pasan el tiempo juntos y acaban enamorándose en el Valle de San Fernando en 1973.
Director Paul Thomas Anderson
Actores Alana Haim, Cooper Hoffman, Sean Penn
Duración 133 min
País Canada, United States
Streaming (Servicio externo)
Grupo: SLOT
Versión: WEB H264 720p
Tamaño: 3.0 GB
Video
ID : 1
Format : AVC
Format/Info : Advanced Video Codec
Format profile : [email protected]
Format settings : CABAC / 5 Ref Frames
Format settings, CABAC : Yes
Format settings, Reference frames : 5 frames
Codec ID : V_MPEG4/ISO/AVC
Duration : 2 h 13 min
Bit rate : 2 819 kb/s
Width : 1 482 pixels
Height : 620 pixels
Display aspect ratio : 2.40:1
Frame rate mode : Constant
Frame rate : 24.000 FPS
Color space : YUV
Chroma subsampling : 4:2:0
Bit depth : 8 bits
Scan type : Progressive
Bits/(Pixel*Frame) : 0.128
Stream size : 2.63 GiB (88%)
Default : Yes
Forced : No
Color range : Limited
Color primaries : BT.709
Transfer characteristics : BT.709
Matrix coefficients : BT.709

Audio
ID : 2
Format : AC-3
Format/Info : Audio Coding 3
Commercial name : Dolby Digital
Codec ID : A_AC3
Duration : 2 h 13 min
Bit rate mode : Constant
Bit rate : 384 kb/s
Channel(s) : 6 channels
Channel layout : L R C LFE Ls Rs
Sampling rate : 48.0 kHz
Frame rate : 31.250 FPS (1536 SPF)
Compression mode : Lossy
Stream size : 366 MiB (12%)
Language : English
Service kind : Complete Main
Default : Yes
Forced : No

Subtitulos

Grupo: SLOT
Versión: WEB H264 1080p
Tamaño: 6.5 GB
Video
ID : 1
Format : AVC
Format/Info : Advanced Video Codec
Format profile : [email protected]
Format settings : CABAC / 5 Ref Frames
Format settings, CABAC : Yes
Format settings, Reference frames : 5 frames
Codec ID : V_MPEG4/ISO/AVC
Duration : 2 h 13 min
Bit rate : 6 622 kb/s
Width : 1 912 pixels
Height : 800 pixels
Display aspect ratio : 2.40:1
Frame rate mode : Constant
Frame rate : 24.000 FPS
Color space : YUV
Chroma subsampling : 4:2:0
Bit depth : 8 bits
Scan type : Progressive
Bits/(Pixel*Frame) : 0.180
Stream size : 6.17 GiB (94%)
Default : Yes
Forced : No
Color range : Limited
Color primaries : BT.709
Transfer characteristics : BT.709
Matrix coefficients : BT.709

Audio
ID : 2
Format : AC-3
Format/Info : Audio Coding 3
Commercial name : Dolby Digital
Codec ID : A_AC3
Duration : 2 h 13 min
Bit rate mode : Constant
Bit rate : 384 kb/s
Channel(s) : 6 channels
Channel layout : L R C LFE Ls Rs
Sampling rate : 48.0 kHz
Frame rate : 31.250 FPS (1536 SPF)
Compression mode : Lossy
Stream size : 366 MiB (5%)
Language : English
Service kind : Complete Main
Default : Yes
Forced : No

Subtitulos

Grupo: NOGRP
Versión: WEBRip x264 1080p
Tamaño: 6.5 GB
Video
ID : 1
Format : AVC
Format/Info : Advanced Video Codec
Format profile : [email protected]
Format settings : CABAC / 5 Ref Frames
Format settings, CABAC : Yes
Format settings, Reference frames : 5 frames
Codec ID : V_MPEG4/ISO/AVC
Duration : 2 h 13 min
Bit rate : 6 618 kb/s
Width : 1 912 pixels
Height : 800 pixels
Display aspect ratio : 2.40:1
Frame rate mode : Constant
Frame rate : 23.976 (24000/1001) FPS
Color space : YUV
Chroma subsampling : 4:2:0
Bit depth : 8 bits
Scan type : Progressive
Bits/(Pixel*Frame) : 0.180
Stream size : 6.17 GiB (94%)
Language : English
Default : Yes
Forced : No
Color range : Limited
Color primaries : BT.709
Transfer characteristics : BT.709
Matrix coefficients : BT.709

Audio
ID : 2
Format : AC-3
Format/Info : Audio Coding 3
Commercial name : Dolby Digital
Codec ID : A_AC3
Duration : 2 h 13 min
Bit rate mode : Constant
Bit rate : 384 kb/s
Channel(s) : 6 channels
Channel layout : L R C LFE Ls Rs
Sampling rate : 48.0 kHz
Frame rate : 31.250 FPS (1536 SPF)
Compression mode : Lossy
Stream size : 366 MiB (5%)
Language : English
Service kind : Complete Main
Default : Yes
Forced : No

Text
ID : 3
Format : UTF-8
Codec ID : S_TEXT/UTF8
Codec ID/Info : UTF-8 Plain Text
Duration : 2 h 6 min
Bit rate : 73 b/s
Count of elements : 2258
Stream size : 68.2 KiB (0%)
Language : English
Default : Yes
Forced : No

Subtitulos

Grupo: PiGNUS
Versión: BDRip x264 720p
Tamaño: 6.3 GB
Name: Licorice.Pizza.2021.720p.BluRay.x264-PiGNUS

Release date: 18-05-2022

IMDB link: https://www.imdb.com/title/tt11271038

Resolution: 1280x534
Audio: English AC3 6ch 640 kbps
Video: 6029 kbps, CRF 15
Source: 35995 kbps
Grupo: PiGNUS
Versión: BDRip x264 1080p
Tamaño: 15.8 GB
Name: Licorice.Pizza.2021.1080p.BluRay.x264-PiGNUS

Release date: 18-05-2022

IMDB link: https://www.imdb.com/title/tt11271038

Resolution: 1920x800
Audio: English DTS-HD Master 6ch 3422 kbps
Video: 13444 kbps, CRF 16
Source: 35995 kbps
Trailer