84
PUNTOS
Calificar
CALIFICA
Calificar
Califica y/o escribe un comentario sobre la película.
Comentarios en el foroFORO

Ayla: The Daughter of War (2017)

En 1950, en medio de los estragos de la Guerra de Corea, el sargento Süleyman se encuentra a una ni?a medio congelada, sin sus padres y sola. Frenética, asustada y al borde de la muerte, esta ni?a atrapa el corazón de Süleyman, que arriesga su propia vida para salvarla. No conociendo su nombre e incapaz de comunicarse con ella, Süleyman le llama Ayla, en reminiscencia de la luna en la fatídica noche en la que se encontraron. Los dos forman un vínculo instantáneo e inseparable.
Director Can Ulkay, Halenur Uzunoglu
Actores ?etin Tekindor, Ismail Hacioglu, Kyung-jin Lee
Duración 125 min
País Turkey
Streaming (Servicio externo)
Grupo: NOGRP
Versión: WEB-DL H264 1080p
Tamaño: 7.8 GB
General
Unique ID                                : 339075359803798950684383254647627137917 (0xFF1789F45E10AC7D898C99C30545437D)
Complete name                            : Ayla.The.Daughter.of.War.2017.1080p.WEB-DL-NOGRP.mkv
Format                                   : Matroska
Format version                           : Version 4
File size                                : 7.26 GiB
Duration                                 : 2 h 3 min
Overall bit rate mode                    : Constant
Overall bit rate                         : 8 390 kb/s
Movie name                               : Ayla The Daughter of War @ FocusX
Encoded date                             : UTC 2022-02-13 17:32:21
Writing application                      : mkvmerge v45.0.0 ('Heaven in Pennies') 64-bit
Writing library                          : libebml v1.3.10 + libmatroska v1.5.2

Video
ID                                       : 1
Format                                   : AVC
Format/Info                              : Advanced Video Codec
Format profile                           : [email protected]
Format settings                          : CABAC / 4 Ref Frames
Format settings, CABAC                   : Yes
Format settings, Reference frames        : 4 frames
Codec ID                                 : V_MPEG4/ISO/AVC
Duration                                 : 2 h 3 min
Bit rate mode                            : Constant
Bit rate                                 : 7 748 kb/s
Nominal bit rate                         : 10 000 kb/s
Width                                    : 1 920 pixels
Height                                   : 800 pixels
Display aspect ratio                     : 2.40:1
Frame rate mode                          : Constant
Frame rate                               : 24.000 FPS
Color space                              : YUV
Chroma subsampling                       : 4:2:0
Bit depth                                : 8 bits
Scan type                                : Progressive
Bits/(Pixel*Frame)                       : 0.210
Stream size                              : 6.70 GiB (92%)
Default                                  : Yes
Forced                                   : No
Color range                              : Limited
Color primaries                          : BT.709
Transfer characteristics                 : BT.709
Matrix coefficients                      : BT.709

Audio
ID                                       : 2
Format                                   : AC-3
Format/Info                              : Audio Coding 3
Commercial name                          : Dolby Digital
Codec ID                                 : A_AC3
Duration                                 : 2 h 3 min
Bit rate mode                            : Constant
Bit rate                                 : 640 kb/s
Channel(s)                               : 6 channels
Channel layout                           : L R C LFE Ls Rs
Sampling rate                            : 48.0 kHz
Frame rate                               : 31.250 FPS (1536 SPF)
Compression mode                         : Lossy
Stream size                              : 567 MiB (8%)
Language                                 : English
Service kind                             : Complete Main
Default                                  : No
Forced                                   : No

Subtitulos

Trailer