80
PUNTOS
Calificar
CALIFICA
Calificar
Califica y/o escribe un comentario sobre la película.
Comentarios en el foroFORO

Verdens verste menneske (2021)

Julie va a cumplir los treinta y su vida es un desastre existencial. Ya ha desperdiciado parte de su talento y su novio Aksel, un exitoso novelista gráfico mayor que ella, la presiona para que contenga su energía creativa y siente la cabeza. Una noche se cuela en una fiesta y conoce al joven y encantador Eivind. Tardará poco en romper con Aksel y embarcarse en una nueva relación con la esperanza de que su vida adquiera una nueva perspectiva. Sin embargo, tendrá que darse cuenta de que ya es demasiado tarde para ciertas opciones vitales.
Director Joachim Trier
Actores Renate Reinsve, Anders Danielsen Lie, Maria Grazia Di Meo
Duración 127 min
País Norway, France, Sweden, Denmark
Streaming (Servicio externo)
Grupo: SbR
Versión: BDRip x264 1080p
Tamaño: 14.6 GB
Video
ID : 1
Format : AVC
Format/Info : Advanced Video Codec
Format profile : [email protected]
Format settings : CABAC / 4 Ref Frames
Format settings, CABAC : Yes
Format settings, Reference frames : 4 frames
Codec ID : V_MPEG4/ISO/AVC
Duration : 2 h 7 min
Bit rate : 14.8 Mb/s
Width : 1 920 pixels
Height : 1 038 pixels
Display aspect ratio : 1.85:1
Frame rate mode : Constant
Frame rate : 24.000 FPS
Color space : YUV
Chroma subsampling : 4:2:0
Bit depth : 8 bits
Scan type : Progressive
Bits/(Pixel*Frame) : 0.310
Stream size : 13.2 GiB (91%)
Writing library : x264 core 164 r3081+60M 07dcb39 devel [(8 & 10)[email protected] X86_64]
Encoding settings : cabac=1 / ref=4 / deblock=1:-3:-3 / analyse=0x3:0x133 / me=umh / subme=11 / psy=1 / fade_compensate=0.00 / psy_rd=1.00:0.00 / mixed_ref=1 / me_range=32 / chroma_me=1 / trellis=2 / 8x8dct=1 / cqm=0 / deadzone=21,11 / fast_pskip=1 / chroma_qp_offset=-2 / threads=32 / lookahead_threads=8 / sliced_threads=0 / nr=0 / decimate=1 / interlaced=0 / bluray_compat=0 / constrained_intra=0 / fgo=0 / bframes=10 / b_pyramid=2 / b_adapt=2 / b_bias=0 / direct=3 / weightb=1 / open_gop=0 / weightp=2 / keyint=250 / keyint_min=24 / scenecut=40 / intra_refresh=0 / rc=crf / mbtree=0 / crf=18.5000 / qcomp=0.65 / qpmin=0:0:0 / qpmax=69:69:69 / qpstep=4 / ip_ratio=1.25 / pb_ratio=1.20 / aq=1:0.60 / aq-sensitivity=10.00 / aq-factor=1.00:1.00:1.00 / aq2=0 / aq3=0
Language : Norwegian
Default : Yes
Forced : No

Audio
ID : 2
Format : DTS
Format/Info : Digital Theater Systems
Codec ID : A_DTS
Duration : 2 h 7 min
Bit rate mode : Constant
Bit rate : 1 509 kb/s
Channel(s) : 6 channels
Channel layout : C L R Ls Rs LFE
Sampling rate : 48.0 kHz
Frame rate : 93.750 FPS (512 SPF)
Bit depth : 24 bits
Compression mode : Lossy
Stream size : 1.35 GiB (9%)
Language : Norwegian
Default : Yes
Forced : No

Text #1
ID : 3
Format : ASS
Codec ID : S_TEXT/ASS
Codec ID/Info : Advanced Sub Station Alpha
Duration : 2 h 7 min
Bit rate : 100 b/s
Count of elements : 1310
Compression mode : Lossless
Stream size : 93.3 KiB (0%)
Language : Russian
Default : No
Forced : No

Text #2
ID : 4
Format : UTF-8
Codec ID : S_TEXT/UTF8
Codec ID/Info : UTF-8 Plain Text
Duration : 2 h 7 min
Bit rate : 69 b/s
Count of elements : 1310
Stream size : 64.6 KiB (0%)
Language : Russian
Default : No
Forced : No

Text #3
ID : 5
Format : ASS
Codec ID : S_TEXT/ASS
Codec ID/Info : Advanced Sub Station Alpha
Duration : 1 h 58 min
Bit rate : 74 b/s
Count of elements : 1306
Compression mode : Lossless
Stream size : 64.4 KiB (0%)
Language : English
Default : No
Forced : No

Text #4
ID : 6
Format : UTF-8
Codec ID : S_TEXT/UTF8
Codec ID/Info : UTF-8 Plain Text
Duration : 1 h 58 min
Bit rate : 41 b/s
Count of elements : 1306
Stream size : 35.8 KiB (0%)
Language : English
Default : No
Forced : No

Text #5
ID : 7
Format : UTF-8
Codec ID : S_TEXT/UTF8
Codec ID/Info : UTF-8 Plain Text
Duration : 1 h 58 min
Bit rate : 49 b/s
Count of elements : 943
Stream size : 42.6 KiB (0%)
Language : Norwegian
Default : No
Forced : No

Menu
00:00:00.000 : en:Chapter 01
00:15:23.708 : en:Chapter 02
00:27:43.417 : en:Chapter 03
00:43:35.208 : en:Chapter 04
00:58:30.708 : en:Chapter 05
01:14:57.667 : en:Chapter 06
01:29:53.292 : en:Chapter 07
01:45:26.292 : en:Chapter 08
Trailer