71
PUNTOS
Calificar
CALIFICA
Calificar
Califica y/o escribe un comentario sobre la película.
Comentarios en el foroFORO

Ras vkhedavt, rodesac cas vukurebt? (2021)

Una joven pareja decide citarse en un bar tras coincidir diversas veces por la calle. Pero, como en un cuento de hadas, el día del encuentro ambos han trasmutado su apariencia y son incapaces de reconocerse.
Director Aleksandre Koberidze
Actores Giorgi Ambroladze, Oliko Barbakadze, Giorgi Bochorishvili
Duración 150 min
País Japan, Georgia, Germany
Streaming (Servicio externo)
Grupo: TEPES
Versión: WEB-DL H264 1080p
Tamaño: 10.5 GB
General
Unique ID : 33313474066895167779682543229245536566 (0x190FF114EF7BBF36BC3D08B429B33936)
Complete name : What.Do.We.See.When.We.Look.at.the.Sky.2021.1080p.AMZN.WEB-DL.DDP2.0.H.264-TEPES.mkv
Format : Matroska
Format version : Version 4
File size : 9.81 GiB
Duration : 2 h 30 min
Overall bit rate : 9 304 kb/s
Writing application : mkvmerge v64.0.0 ('Willows') 64-bit
Writing library : libebml v1.4.2 + libmatroska v1.6.4

Video
ID : 1
Format : AVC
Format/Info : Advanced Video Codec
Format profile : [email protected]
Format settings : CABAC / 4 Ref Frames
Format settings, CABAC : Yes
Format settings, Reference frames : 4 frames
Codec ID : V_MPEG4/ISO/AVC
Duration : 2 h 30 min
Bit rate mode : Constant
Bit rate : 9 078 kb/s
Nominal bit rate : 10 000 kb/s
Width : 1 792 pixels
Height : 1 080 pixels
Display aspect ratio : 5:3
Frame rate mode : Constant
Frame rate : 24.000 FPS
Color space : YUV
Chroma subsampling : 4:2:0
Bit depth : 8 bits
Scan type : Progressive
Bits/(Pixel*Frame) : 0.195
Stream size : 9.57 GiB (98%)
Default : Yes
Forced : No
Color range : Limited
Color primaries : BT.709
Transfer characteristics : BT.709
Matrix coefficients : BT.709

Audio
ID : 2
Format : E-AC-3
Format/Info : Enhanced AC-3
Commercial name : Dolby Digital Plus
Codec ID : A_EAC3
Duration : 2 h 30 min
Bit rate mode : Constant
Bit rate : 224 kb/s
Channel(s) : 2 channels
Channel layout : L R
Sampling rate : 48.0 kHz
Frame rate : 31.250 FPS (1536 SPF)
Compression mode : Lossy
Stream size : 242 MiB (2%)
Language : Georgian
Service kind : Complete Main
Default : Yes
Forced : No
Trailer