65
PUNTOS
Calificar
CALIFICA
Calificar
Califica y/o escribe un comentario sobre la película.
Comentarios en el foroFORO

Pleasure (2021)

La joven Jessica deja atrás su vida en un pueblo sueco para ir a Los Angeles y convertirse en la próxima gran estrella porno. El camino hacia su objetivo será más accidentado de lo que había imaginado.
Director Ninja Thyberg
Actores Sofia Kappel, Revika Anne Reustle, Evelyn Claire
Duración 109 min
País Sweden, Netherlands, France
Streaming (Servicio externo)
Grupo: KNiVES
Versión: BDRip x264 720p
Tamaño: 3.1 GB
KNiVES cuts you with

Pleasure (2021)

date.......: today
Reso.......: 1280*690px
Biterate...: 3404 Kb/s
Source.....: 27,4 Mb/s
sound......: AC3
check......: https://www.imdb.com/title/tt8550054/
Grupo: KNiVES
Versión: BDRip x264 1080p
Tamaño: 11.9 GB
KNiVES cuts you with

Pleasure (2021)

date.......: today
Reso.......: 1920*1036px
Biterate...: 12,3 Kb/s
Source.....: 27,4 Mb/s
sound......: DTS-HD
check......: https://www.imdb.com/title/tt8550054/
Grupo: PTP
Versión: BDRip x264 1080p
Tamaño: 9.0 GB
Video
ID : 1
Format : AVC
Format/Info : Advanced Video Codec
Format profile : [email protected]
Format settings : CABAC / 4 Ref Frames
Format settings, CABAC : Yes
Format settings, Reference frames : 4 frames
Codec ID : V_MPEG4/ISO/AVC
Duration : 1 h 47 min
Bit rate : 11.2 Mb/s
Width : 1 920 pixels
Height : 1 048 pixels
Display aspect ratio : 1.85:1
Frame rate mode : Constant
Frame rate : 24.000 FPS
Color space : YUV
Chroma subsampling : 4:2:0
Bit depth : 8 bits
Scan type : Progressive
Bits/(Pixel*Frame) : 0.233
Stream size : 8.47 GiB (95%)
Writing library : x264 core 157 r2935 545de2f
Encoding settings : cabac=1 / ref=4 / deblock=1:-3:-3 / analyse=0x3:0x133 / me=umh / subme=10 / psy=1 / psy_rd=1.00:0.00 / mixed_ref=1 / me_range=32 / chroma_me=1 / trellis=2 / 8x8dct=1 / cqm=0 / deadzone=21,11 / fast_pskip=0 / chroma_qp_offset=-2 / threads=6 / lookahead_threads=1 / sliced_threads=0 / nr=0 / decimate=1 / interlaced=0 / bluray_compat=0 / constrained_intra=0 / bframes=16 / b_pyramid=2 / b_adapt=2 / b_bias=0 / direct=3 / weightb=1 / open_gop=0 / weightp=2 / keyint=250 / keyint_min=24 / scenecut=40 / intra_refresh=0 / rc_lookahead=250 / rc=2pass / mbtree=1 / bitrate=11235 / ratetol=1.0 / qcomp=0.60 / qpmin=0 / qpmax=69 / qpstep=4 / cplxblur=20.0 / qblur=0.5 / vbv_maxrate=62500 / vbv_bufsize=78125 / nal_hrd=none / filler=0 / ip_ratio=1.40 / aq=3:0.80
Language : English
Default : Yes
Forced : No
Color range : Limited
Color primaries : BT.709
Matrix coefficients : BT.709

Audio
ID : 2
Format : AC-3
Format/Info : Audio Coding 3
Commercial name : Dolby Digital
Codec ID : A_AC3
Duration : 1 h 47 min
Bit rate mode : Constant
Bit rate : 640 kb/s
Channel(s) : 6 channels
Channel layout : L R C LFE Ls Rs
Sampling rate : 48.0 kHz
Frame rate : 31.250 FPS (1536 SPF)
Compression mode : Lossy
Stream size : 494 MiB (5%)
Language : English
Service kind : Complete Main
Default : Yes
Forced : No

Text #1
ID : 3
Format : UTF-8
Codec ID : S_TEXT/UTF8
Codec ID/Info : UTF-8 Plain Text
Duration : 2 min 41 s
Bit rate : 64 b/s
Count of elements : 32
Stream size : 1.26 KiB (0%)
Language : English
Default : No
Forced : Yes

Text #2
ID : 4
Format : UTF-8
Codec ID : S_TEXT/UTF8
Codec ID/Info : UTF-8 Plain Text
Duration : 1 h 42 min
Bit rate : 58 b/s
Count of elements : 1245
Stream size : 43.8 KiB (0%)
Language : English
Default : No
Forced : No

Text #3
ID : 5
Format : UTF-8
Codec ID : S_TEXT/UTF8
Codec ID/Info : UTF-8 Plain Text
Duration : 1 h 42 min
Bit rate : 46 b/s
Count of elements : 831
Stream size : 34.8 KiB (0%)
Language : Dutch
Default : No
Forced : No

Menu
00:00:00.000 : en:Chapter 1
00:08:22.583 : en:Chapter 2
00:17:59.000 : en:Chapter 3
00:26:57.083 : en:Chapter 4
00:35:54.958 : en:Chapter 5
00:44:25.833 : en:Chapter 6
00:51:48.958 : en:Chapter 7
01:03:28.292 : en:Chapter 8
01:12:58.708 : en:Chapter 9
01:20:49.375 : en:Chapter 10
01:30:13.083 : en:Chapter 11
01:40:19.250 : en:Chapter 12
Grupo: CBFM
Versión: WEB H264 720p
Tamaño: 1.6 GB
Pleasure.2021.720p.WEB.H264-CBFM

info

Duration ..........: 1h 48m 07s
Size ..............: 1.57 GB
Quality ...........: 24.000 FPS / 1694 Kbps
Resolution ........: 1280x720
Audio .............: AC3 Audio 6ch
Bitrate ...........: 48.0 kHz / 384 Kbps
Subtitles..........: Danish, Norwegian, Swedish, Finnish
Grupo: CBFM
Versión: WEB H264 1080p
Tamaño: 3.0 GB
Pleasure.2021.1080p.WEB.H264-CBFM

info

Duration ..........: 1h 48m 07s
Size ..............: 2.99 GB
Quality ...........: 24.000 FPS / 3577 Kbps
Resolution ........: 1920x1080
Audio .............: AC3 Audio 6ch
Bitrate ...........: 48.0 kHz / 384 Kbps
Subtitles..........: Danish, Norwegian, Swedish, Finnish
Trailer