33
PUNTOS
Calificar
CALIFICA
Calificar
Califica y/o escribe un comentario sobre la pelĂ­cula.
Comentarios en el foroFORO

Zeros and Ones (2021)

Tras un asedio apocalĂ­ptico, 'Zeros and Ones' cuenta la historia de cuando el soldado americano JJ se abre camino en un mundo turbio y encerrado de miedo, paranoia y esperanza a la sombra del Vaticano. Una guerra entre la historia y el futuro que tiene lugar hasta el amanecer.
Director Abel Ferrara
Actores Ethan Hawke, Valerio Mastandrea, Cristina Chiriac
Duración 85 min
País Germany, United States, United Kingdom, Italy
Streaming (Servicio externo)
Grupo: MT
Versión: BDRip x264 720p
Tamaño: 10.4 GB
Video
ID : 1
Format : AVC
Format/Info : Advanced Video Codec
Format profile : [email protected]
Format settings : CABAC / 12 Ref Frames
Format settings, CABAC : Yes
Format settings, Reference frames : 12 frames
Codec ID : V_MPEG4/ISO/AVC
Duration : 1 h 26 min
Bit rate : 15.7 Mb/s
Width : 1 280 pixels
Height : 536 pixels
Display aspect ratio : 2.40:1
Frame rate mode : Constant
Frame rate : 23.976 (24000/1001) FPS
Color space : YUV
Chroma subsampling : 4:2:0
Bit depth : 8 bits
Scan type : Progressive
Bits/(Pixel*Frame) : 0.957
Stream size : 9.50 GiB (91%)
Writing library : x264 core 157 r2938 2b00a84 [email protected] Mod
Encoding settings : cabac=1 / ref=12 / deblock=1:-3:-3 / analyse=0x3:0x133 / me=umh / subme=10 / psy=1 / psy_rd=1.05:0.00 / mixed_ref=1 / me_range=32 / chroma_me=1 / trellis=2 / 8x8dct=1 / cqm=0 / deadzone=21,11 / fast_pskip=0 / chroma_qp_offset=-2 / threads=12 / lookahead_threads=2 / sliced_threads=0 / nr=0 / decimate=0 / interlaced=0 / bluray_compat=0 / constrained_intra=0 / bframes=8 / b_pyramid=2 / b_adapt=2 / b_bias=0 / direct=3 / weightb=1 / open_gop=0 / weightp=2 / keyint=250 / keyint_min=24 / scenecut=40 / intra_refresh=0 / rc_lookahead=250 / rc=crf / mbtree=0 / crf=16.8 / qcomp=0.60 / qpmin=0 / qpmax=69 / qpstep=4 / vbv_maxrate=62500 / vbv_bufsize=78125 / crf_max=0.0 / nal_hrd=none / filler=0 / ip_ratio=1.30 / pb_ratio=1.20 / aq=3:0.80
Language : English
Default : Yes
Forced : No
Color range : Limited
Color primaries : BT.709
Matrix coefficients : BT.709

Audio
ID : 2
Format : DTS
Format/Info : Digital Theater Systems
Codec ID : A_DTS
Duration : 1 h 26 min
Bit rate mode : Constant
Bit rate : 1 509 kb/s
Channel(s) : 6 channels
Channel layout : C L R Ls Rs LFE
Sampling rate : 48.0 kHz
Frame rate : 93.750 FPS (512 SPF)
Bit depth : 24 bits
Compression mode : Lossy
Stream size : 933 MiB (9%)
Language : English
Default : Yes
Forced : No

Text #1
ID : 3
Format : UTF-8
Codec ID : S_TEXT/UTF8
Codec ID/Info : UTF-8 Plain Text
Duration : 1 h 20 min
Bit rate : 19 b/s
Count of elements : 358
Stream size : 11.6 KiB (0%)
Language : English
Default : Yes
Forced : No

Text #2
ID : 4
Format : UTF-8
Codec ID : S_TEXT/UTF8
Codec ID/Info : UTF-8 Plain Text
Duration : 1 h 20 min
Bit rate : 23 b/s
Count of elements : 458
Stream size : 13.8 KiB (0%)
Title : SDH
Language : English
Default : No
Forced : No

Menu
00:00:00.000 : en:Chapter 01
00:08:00.271 : en:Chapter 02
00:11:59.886 : en:Chapter 03
00:16:39.123 : en:Chapter 04
00:22:55.624 : en:Chapter 05
00:27:56.091 : en:Chapter 06
00:33:48.026 : en:Chapter 07
00:36:30.355 : en:Chapter 08
00:41:42.834 : en:Chapter 09
00:44:11.482 : en:Chapter 10
00:49:00.479 : en:Chapter 11
00:51:51.191 : en:Chapter 12
00:55:53.308 : en:Chapter 13
01:01:21.177 : en:Chapter 14
01:07:22.956 : en:Chapter 15
01:15:05.584 : en:Chapter 16

Subtitulos

Grupo: MT
Versión: BDRip x264 1080p
Tamaño: 22.1 GB
Video
ID : 1
Format : AVC
Format/Info : Advanced Video Codec
Format profile : [email protected]
Format settings : CABAC / 5 Ref Frames
Format settings, CABAC : Yes
Format settings, Reference frames : 5 frames
Codec ID : V_MPEG4/ISO/AVC
Duration : 1 h 26 min
Bit rate : 35.1 Mb/s
Width : 1 920 pixels
Height : 804 pixels
Display aspect ratio : 2.40:1
Frame rate mode : Constant
Frame rate : 23.976 (24000/1001) FPS
Color space : YUV
Chroma subsampling : 4:2:0
Bit depth : 8 bits
Scan type : Progressive
Bits/(Pixel*Frame) : 0.949
Stream size : 21.2 GiB (96%)
Writing library : x264 core 157 r2938 2b00a84 [email protected] Mod
Encoding settings : cabac=1 / ref=5 / deblock=1:-3:-3 / analyse=0x3:0x133 / me=umh / subme=10 / psy=1 / psy_rd=1.05:0.00 / mixed_ref=1 / me_range=32 / chroma_me=1 / trellis=2 / 8x8dct=1 / cqm=0 / deadzone=21,11 / fast_pskip=0 / chroma_qp_offset=-2 / threads=12 / lookahead_threads=2 / sliced_threads=0 / nr=0 / decimate=0 / interlaced=0 / bluray_compat=0 / constrained_intra=0 / bframes=8 / b_pyramid=2 / b_adapt=2 / b_bias=0 / direct=3 / weightb=1 / open_gop=0 / weightp=2 / keyint=250 / keyint_min=24 / scenecut=40 / intra_refresh=0 / rc_lookahead=250 / rc=crf / mbtree=0 / crf=16.8 / qcomp=0.60 / qpmin=0 / qpmax=69 / qpstep=4 / vbv_maxrate=62500 / vbv_bufsize=78125 / crf_max=0.0 / nal_hrd=none / filler=0 / ip_ratio=1.30 / pb_ratio=1.20 / aq=3:0.80
Language : English
Default : Yes
Forced : No
Color range : Limited
Color primaries : BT.709
Matrix coefficients : BT.709

Audio
ID : 2
Format : DTS
Format/Info : Digital Theater Systems
Codec ID : A_DTS
Duration : 1 h 26 min
Bit rate mode : Constant
Bit rate : 1 509 kb/s
Channel(s) : 6 channels
Channel layout : C L R Ls Rs LFE
Sampling rate : 48.0 kHz
Frame rate : 93.750 FPS (512 SPF)
Bit depth : 24 bits
Compression mode : Lossy
Stream size : 933 MiB (4%)
Language : English
Default : Yes
Forced : No

Text #1
ID : 3
Format : UTF-8
Codec ID : S_TEXT/UTF8
Codec ID/Info : UTF-8 Plain Text
Duration : 1 h 20 min
Bit rate : 19 b/s
Count of elements : 358
Stream size : 11.6 KiB (0%)
Language : English
Default : Yes
Forced : No

Text #2
ID : 4
Format : UTF-8
Codec ID : S_TEXT/UTF8
Codec ID/Info : UTF-8 Plain Text
Duration : 1 h 20 min
Bit rate : 23 b/s
Count of elements : 458
Stream size : 13.8 KiB (0%)
Title : SDH
Language : English
Default : No
Forced : No

Menu
00:00:00.000 : en:Chapter 01
00:08:00.271 : en:Chapter 02
00:11:59.886 : en:Chapter 03
00:16:39.123 : en:Chapter 04
00:22:55.624 : en:Chapter 05
00:27:56.091 : en:Chapter 06
00:33:48.026 : en:Chapter 07
00:36:30.355 : en:Chapter 08
00:41:42.834 : en:Chapter 09
00:44:11.482 : en:Chapter 10
00:49:00.479 : en:Chapter 11
00:51:51.191 : en:Chapter 12
00:55:53.308 : en:Chapter 13
01:01:21.177 : en:Chapter 14
01:07:22.956 : en:Chapter 15
01:15:05.584 : en:Chapter 16

Subtitulos

Grupo: PiGNUS
Versión: BDRip x264 720p
Tamaño: 5.5 GB
Name: Zeros.and.Ones.2021.720p.BluRay.x264-PiGNUS

Release date: 04-01-2022

IMDB link: https://www.imdb.com/title/tt13432484

Resolution: 1280x536
Audio: English AC3 6ch 640 kbps
Video: 8404 kbps, CRF 18.6
Source: 30641 kbps
Grupo: PiGNUS
Versión: BDRip x264 1080p
Tamaño: 12.7 GB
Name: Zeros.and.Ones.2021.1080p.BluRay.x264-PiGNUS

Release date: 04-01-2022

IMDB link: https://www.imdb.com/title/tt13432484

Resolution: 1920x804
Audio: English DTS-HD Master 6ch 3598 kbps
Video: 17412 kbps, CRF 20.1
Source: 30641 kbps
Trailer