75
PUNTOS
Calificar
CALIFICA
Calificar
Califica y/o escribe un comentario sobre la película.
Comentarios en el foroFORO

? stata la mano di Dio (2021)

El oscarizado guionista y director Paolo Sorrentino presenta la historia de un chico, Fabietto Schisa (Filippo Scotti), en el turbulento Nápoles de los a?os ochenta. En "Fue la mano de Dios", hay lugar para alegres sorpresas, como la llegada del legendario futbolista Diego Maradona, y para una tragedia igual de imprevista. El destino interpreta su papel, la alegría y la desdicha se entrelazan y el futuro de Fabietto echa a rodar. Sorrentino vuelve a la ciudad que lo vio nacer para contar su historia más personal: un relato sobre el destino y la familia, los deportes y el cine, el amor y la pérdida.
Director Paolo Sorrentino
Actores Filippo Scotti, Toni Servillo, Teresa Saponangelo
Duración 130 min
País Italy, United States
Streaming (Servicio externo)
Grupo: TEPES
Versión: WEB-DL H264 720p
Tamaño: 1.5 GB
Video
ID : 1
Format : AVC
Format/Info : Advanced Video Codec
Format profile : [email protected]
Format settings : CABAC / 3 Ref Frames
Format settings, CABAC : Yes
Format settings, Reference frames : 3 frames
Codec ID : V_MPEG4/ISO/AVC
Duration : 2 h 10 min
Bit rate mode : Variable
Bit rate : 943 kb/s
Nominal bit rate : 1 720 kb/s
Maximum bit rate : 2 670 kb/s
Width : 1 280 pixels
Height : 720 pixels
Display aspect ratio : 16:9
Frame rate mode : Constant
Frame rate : 25.000 FPS
Color space : YUV
Chroma subsampling : 4:2:0
Bit depth : 8 bits
Scan type : Progressive
Bits/(Pixel*Frame) : 0.041
Stream size : 882 MiB (59%)
Writing library : x264 core 148 r2724 dbe0335
Encoding settings : cabac=1 / ref=3 / deblock=1:0:0 / analyse=0x1:0x111 / me=umh / subme=10 / psy=1 / psy_rd=1.00:0.00 / mixed_ref=1 / me_range=24 / chroma_me=1 / trellis=2 / 8x8dct=0 / cqm=0 / deadzone=21,11 / fast_pskip=1 / chroma_qp_offset=-2 / threads=8 / lookahead_threads=1 / sliced_threads=0 / nr=0 / decimate=1 / interlaced=0 / bluray_compat=0 / stitchable=1 / constrained_intra=0 / bframes=2 / b_pyramid=0 / b_adapt=2 / b_bias=0 / direct=3 / weightb=1 / open_gop=0 / weightp=2 / keyint=250 / keyint_min=25 / scenecut=0 / intra_refresh=0 / rc_lookahead=50 / rc=2pass / mbtree=1 / bitrate=1720 / ratetol=1.0 / qcomp=0.50 / qpmin=6 / qpmax=51 / qpstep=4 / cplxblur=20.0 / qblur=0.5 / vbv_maxrate=2670 / vbv_bufsize=3560 / nal_hrd=vbr / filler=0 / ip_ratio=1.40 / aq=1:1.00
Default : Yes
Forced : No

Audio
ID : 2
Format : E-AC-3
Format/Info : Enhanced AC-3
Commercial name : Dolby Digital Plus
Codec ID : A_EAC3
Duration : 2 h 10 min
Bit rate mode : Constant
Bit rate : 640 kb/s
Channel(s) : 6 channels
Channel layout : L R C LFE Ls Rs
Sampling rate : 48.0 kHz
Frame rate : 31.250 FPS (1536 SPF)
Compression mode : Lossy
Stream size : 598 MiB (40%)
Language : Italian
Service kind : Complete Main
Default : Yes
Forced : No

Subtitulos

Grupo: TEPES
Versión: WEB-DL H264 1080p
Tamaño: 2.6 GB
Video
ID : 1
Format : AVC
Format/Info : Advanced Video Codec
Format profile : [email protected]
Format settings : CABAC / 3 Ref Frames
Format settings, CABAC : Yes
Format settings, Reference frames : 3 frames
Codec ID : V_MPEG4/ISO/AVC
Duration : 2 h 10 min
Bit rate mode : Variable
Bit rate : 2 240 kb/s
Nominal bit rate : 4 020 kb/s
Maximum bit rate : 6 030 kb/s
Width : 1 920 pixels
Height : 1 080 pixels
Display aspect ratio : 16:9
Frame rate mode : Constant
Frame rate : 25.000 FPS
Color space : YUV
Chroma subsampling : 4:2:0
Bit depth : 8 bits
Scan type : Progressive
Bits/(Pixel*Frame) : 0.043
Stream size : 2.04 GiB (78%)
Writing library : x264 core 148 r2724 dbe0335
Encoding settings : cabac=1 / ref=3 / deblock=1:0:0 / analyse=0x1:0x111 / me=umh / subme=10 / psy=1 / psy_rd=1.00:0.00 / mixed_ref=1 / me_range=24 / chroma_me=1 / trellis=2 / 8x8dct=0 / cqm=0 / deadzone=21,11 / fast_pskip=1 / chroma_qp_offset=-2 / threads=6 / lookahead_threads=1 / sliced_threads=0 / nr=0 / decimate=1 / interlaced=0 / bluray_compat=0 / stitchable=1 / constrained_intra=0 / bframes=2 / b_pyramid=0 / b_adapt=2 / b_bias=0 / direct=3 / weightb=1 / open_gop=0 / weightp=2 / keyint=250 / keyint_min=25 / scenecut=0 / intra_refresh=0 / rc_lookahead=50 / rc=2pass / mbtree=1 / bitrate=4020 / ratetol=1.0 / qcomp=0.50 / qpmin=6 / qpmax=51 / qpstep=4 / cplxblur=20.0 / qblur=0.5 / vbv_maxrate=6030 / vbv_bufsize=8040 / nal_hrd=vbr / filler=0 / ip_ratio=1.40 / aq=1:1.00
Default : Yes
Forced : No

Audio
ID : 2
Format : E-AC-3
Format/Info : Enhanced AC-3
Commercial name : Dolby Digital Plus
Codec ID : A_EAC3
Duration : 2 h 10 min
Bit rate mode : Constant
Bit rate : 640 kb/s
Channel(s) : 6 channels
Channel layout : L R C LFE Ls Rs
Sampling rate : 48.0 kHz
Frame rate : 31.250 FPS (1536 SPF)
Compression mode : Lossy
Stream size : 598 MiB (22%)
Language : Italian
Service kind : Complete Main
Default : Yes
Forced : No

Subtitulos

Trailer