65
PUNTOS
Calificar
CALIFICA
Calificar
Califica y/o escribe un comentario sobre la película.
Comentarios en el foroFORO

Alice (2019)

Alice, una mujer feliz y esposa modélica, ve cómo su vida se viene abajo cuando descubre que su marido está viviendo una vida secreta. Antes de darse cuenta se ve cuidando de su hijo sola y sin dinero para poder hacer frente a las múltiples deudas que debe pagar mensualmente. La nueva circunstancia por la que atraviesa le permite descubrirse a sí misma y a las personas que la rodean.
Director Josephine Mackerras
Actores Emilie Piponnier, Martin Swabey, Chloé Boreham
Duración 103 min
País France, Australia, United Kingdom
Streaming (Servicio externo)
Grupo: EA
Versión: BDRip x264 1080p
Tamaño: 8.8 GB
Video
ID : 1
Format : AVC
Format/Info : Advanced Video Codec
Format profile : [email protected]
Format settings : CABAC / 5 Ref Frames
Format settings, CABAC : Yes
Format settings, Reference frames : 5 frames
Codec ID : V_MPEG4/ISO/AVC
Duration : 1 h 45 min
Bit rate : 10.9 Mb/s
Width : 1 920 pixels
Height : 804 pixels
Display aspect ratio : 2.40:1
Frame rate mode : Constant
Frame rate : 25.000 FPS
Color space : YUV
Chroma subsampling : 4:2:0
Bit depth : 8 bits
Scan type : Progressive
Bits/(Pixel*Frame) : 0.282
Stream size : 8.01 GiB (91%)
Title : -EA
Writing library : x264 core 164 r3065+55M 280faca t_mod_New [(8 & 10)[email protected] X86_64]
Encoding settings : cabac=1 / ref=5 / deblock=1:-3:-3 / analyse=0x3:0x133 / me=umh / subme=10 / psy=1 / fade_compensate=0.00 / psy_rd=0.98:0.00 / mixed_ref=1 / me_range=32 / chroma_me=1 / trellis=2 / 8x8dct=1 / cqm=0 / deadzone=21,11 / fast_pskip=0 / chroma_qp_offset=-2 / threads=18 / lookahead_threads=3 / sliced_threads=0 / nr=0 / decimate=0 / interlaced=0 / bluray_compat=0 / constrained_intra=0 / fgo=0 / bframes=9 / b_pyramid=2 / b_adapt=2 / b_bias=0 / direct=3 / weightb=1 / open_gop=0 / weightp=2 / keyint=250 / keyint_min=25 / scenecut=40 / intra_refresh=0 / rc_lookahead=60 / rc=crf / mbtree=0 / crf=15.8000 / qcomp=0.65 / qpmin=0:0:0 / qpmax=69:69:69 / qpstep=4 / vbv_maxrate=62500 / vbv_bufsize=78125 / crf_max=0.0 / nal_hrd=none / filler=0 / ip_ratio=1.35 / pb_ratio=1.25 / aq=3:0.85 / aq-sensitivity=10.00 / aq-factor=1.00:1.00:1.00 / aq2=0 / aq3=0
Language : French
Default : Yes
Forced : No
Color range : Limited
Color primaries : BT.709
Transfer characteristics : BT.709
Matrix coefficients : BT.709

Audio
ID : 2
Format : E-AC-3
Format/Info : Enhanced AC-3
Commercial name : Dolby Digital Plus
Codec ID : A_EAC3
Duration : 1 h 45 min
Bit rate mode : Constant
Bit rate : 1 023 kb/s
Channel(s) : 6 channels
Channel layout : L R C LFE Ls Rs
Sampling rate : 48.0 kHz
Frame rate : 93.750 FPS (512 SPF)
Compression mode : Lossy
Stream size : 771 MiB (9%)
Language : French
Service kind : Complete Main
Default : Yes
Forced : No

Text #1
ID : 3
Format : UTF-8
Codec ID : S_TEXT/UTF8
Codec ID/Info : UTF-8 Plain Text
Duration : 1 h 42 min
Bit rate : 38 b/s
Count of elements : 1021
Stream size : 29.0 KiB (0%)
Title : srt
Language : English
Default : Yes
Forced : No

Text #2
ID : 4
Format : PGS
Muxing mode : zlib
Codec ID : S_HDMV/PGS
Codec ID/Info : Picture based subtitle format used on BDs/HD-DVDs
Duration : 1 h 42 min
Bit rate : 20.7 kb/s
Count of elements : 1958
Stream size : 15.2 MiB (0%)
Title : sup
Language : German
Default : No
Forced : No

Menu
00:00:00.000 : :Chapter 1
00:06:58.000 : :Chapter 2
00:15:34.840 : :Chapter 3
00:20:27.120 : :Chapter 4
00:27:49.360 : :Chapter 5
00:35:41.000 : :Chapter 6
00:44:44.440 : :Chapter 7
00:54:43.760 : :Chapter 8
01:04:33.200 : :Chapter 9
01:12:10.640 : :Chapter 10
01:26:54.760 : :Chapter 11
01:42:57.040 : :Chapter 12

Subtitulos

Trailer