71
PUNTOS
Calificar
CALIFICA
Calificar
Califica y/o escribe un comentario sobre la película.
Comentarios en el foroFORO

Ich bin dein Mensch (2021)

Alma (Maren Eggert) es una científica que trabaja en el famoso museo Pergamon de Berlín. De cara a obtener fondos para su investigación acepta participar en un estudio fuera de lo normal. Durante tres semanas vivirá con un robot humanoide que está programado para encajar con su personalidad y necesidades. Así es como Alma conoce a Tom (Dan Stevens), una máquina altamente desarrollada que ha sido creada única y exclusivamente para hacerla feliz.
Director Maria Schrader
Actores Maren Eggert, Dan Stevens, Sandra Hüller
Duración 108 min
País Germany
Streaming (Servicio externo)
Grupo: EA
Versión: BDRip x264 1080p
Tamaño: 10.3 GB
Video
ID : 1
Format : AVC
Format/Info : Advanced Video Codec
Format profile : [email protected]
Format settings : CABAC / 4 Ref Frames
Format settings, CABAC : Yes
Format settings, Reference frames : 4 frames
Codec ID : V_MPEG4/ISO/AVC
Duration : 1 h 43 min
Bit rate : 13.1 Mb/s
Width : 1 920 pixels
Height : 960 pixels
Display aspect ratio : 2.000
Frame rate mode : Constant
Frame rate : 25.000 FPS
Color space : YUV
Chroma subsampling : 4:2:0
Bit depth : 8 bits
Scan type : Progressive
Bits/(Pixel*Frame) : 0.284
Stream size : 9.50 GiB (93%)
Title : -EA
Writing library : x264 core 164 r3065+55M 280faca t_mod_New [(8 & 10)[email protected] X86_64]
Encoding settings : cabac=1 / ref=4 / deblock=1:-3:-3 / analyse=0x3:0x133 / me=umh / subme=10 / psy=1 / fade_compensate=0.00 / psy_rd=0.96:0.00 / mixed_ref=1 / me_range=32 / chroma_me=1 / trellis=2 / 8x8dct=1 / cqm=0 / deadzone=21,11 / fast_pskip=0 / chroma_qp_offset=-2 / threads=18 / lookahead_threads=4 / sliced_threads=0 / nr=0 / decimate=0 / interlaced=0 / bluray_compat=0 / constrained_intra=0 / fgo=0 / bframes=13 / b_pyramid=2 / b_adapt=2 / b_bias=0 / direct=3 / weightb=1 / open_gop=0 / weightp=2 / keyint=250 / keyint_min=25 / scenecut=40 / intra_refresh=0 / rc_lookahead=60 / rc=crf / mbtree=0 / crf=16.6500 / qcomp=0.65 / qpmin=0:0:0 / qpmax=69:69:69 / qpstep=4 / vbv_maxrate=62500 / vbv_bufsize=78125 / crf_max=0.0 / nal_hrd=none / filler=0 / ip_ratio=1.35 / pb_ratio=1.25 / aq=3:0.85 / aq-sensitivity=10.00 / aq-factor=1.00:1.00:1.00 / aq2=0 / aq3=0
Language : German
Default : Yes
Forced : No
Color range : Limited
Color primaries : BT.709
Transfer characteristics : BT.709
Matrix coefficients : BT.709

Audio
ID : 2
Format : E-AC-3
Format/Info : Enhanced AC-3
Commercial name : Dolby Digital Plus
Codec ID : A_EAC3
Duration : 1 h 43 min
Bit rate mode : Constant
Bit rate : 1 023 kb/s
Channel(s) : 6 channels
Channel layout : L R C LFE Ls Rs
Sampling rate : 48.0 kHz
Frame rate : 93.750 FPS (512 SPF)
Compression mode : Lossy
Stream size : 760 MiB (7%)
Language : German
Service kind : Complete Main
Default : Yes
Forced : No

Text #1
ID : 3
Format : UTF-8
Codec ID : S_TEXT/UTF8
Codec ID/Info : UTF-8 Plain Text
Duration : 1 h 38 min
Bit rate : 42 b/s
Count of elements : 885
Stream size : 30.6 KiB (0%)
Language : English
Default : Yes
Forced : No

Text #2
ID : 4
Format : UTF-8
Codec ID : S_TEXT/UTF8
Codec ID/Info : UTF-8 Plain Text
Duration : 1 h 38 min
Bit rate : 83 b/s
Count of elements : 994
Stream size : 60.2 KiB (0%)
Title : srt
Language : Russian
Default : No
Forced : No

Text #3
ID : 5
Format : PGS
Muxing mode : zlib
Codec ID : S_HDMV/PGS
Codec ID/Info : Picture based subtitle format used on BDs/HD-DVDs
Duration : 1 h 38 min
Bit rate : 40.1 kb/s
Count of elements : 2848
Stream size : 28.3 MiB (0%)
Title : sup HoH
Language : German
Default : No
Forced : No

Menu
00:00:00.000 : :Chapter 01
00:07:10.040 : :Chapter 02
00:11:52.320 : :Chapter 03
00:17:24.800 : :Chapter 04
00:24:49.920 : :Chapter 05
00:32:44.040 : :Chapter 06
00:41:02.840 : :Chapter 07
00:48:29.440 : :Chapter 08
00:56:32.000 : :Chapter 09
01:03:01.240 : :Chapter 10
01:07:27.800 : :Chapter 11
01:14:46.320 : :Chapter 12
01:21:31.360 : :Chapter 13
01:27:59.640 : :Chapter 14
01:33:11.320 : :Chapter 15
01:39:45.560 : :Chapter 16

Subtitulos

Trailer