61
PUNTOS
Calificar
CALIFICA
Calificar
Califica y/o escribe un comentario sobre la película.
Comentarios en el foroFORO

Undtagelsen (2019)

Cuatro mujeres trabajan juntas en Copenhague en una peque?a ONG especializada en genocidios. En un momento, dos de ellas reciben amenazas de muerte y al principio sospechan de un criminal de guerra serbio. Sin embargo, luego comienzan a sospechar entre sí y a volver las unas contra las otras.
Director Jesper W. Nielsen
Actores Danica Curcic, Amanda Collin, Sidse Babett Knudsen
Duración 115 min
País Denmark, Norway, Sweden
Streaming (Servicio externo)
Grupo: NOGRP
Versión: WEB-DL H264 1080p
Tamaño: 4.4 GB
General
Unique ID                                : 224728034144672159938713805049848027611 (0xA9110B871A3BA2D0D3380BA76CDA59DB)
Complete name                            : Undtagelsen.2020.NORDiC.1080p.WEB-DL.H.264.DD5.1-NOGRP.mkv
Format                                   : Matroska
Format version                           : Version 4
File size                                : 4.08 GiB
Duration                                 : 1 h 57 min
Overall bit rate                         : 4 986 kb/s
Movie name                               : Undtagelsen.2020.1080pWEB-DL.
Encoded date                             : UTC 2021-10-06 01:41:12
Writing application                      : mkvmerge v45.0.0 ('Heaven in Pennies') 64-bit
Writing library                          : libebml v1.3.10 + libmatroska v1.5.2

Video
ID                                       : 1
Format                                   : AVC
Format/Info                              : Advanced Video Codec
Format profile                           : [email protected]
Format settings                          : CABAC / 5 Ref Frames
Format settings, CABAC                   : Yes
Format settings, Reference frames        : 5 frames
Codec ID                                 : V_MPEG4/ISO/AVC
Duration                                 : 1 h 57 min
Bit rate                                 : 4 600 kb/s
Width                                    : 1 920 pixels
Height                                   : 804 pixels
Display aspect ratio                     : 2.40:1
Frame rate mode                          : Constant
Frame rate                               : 25.000 FPS
Color space                              : YUV
Chroma subsampling                       : 4:2:0
Bit depth                                : 8 bits
Scan type                                : Progressive
Bits/(Pixel*Frame)                       : 0.119
Stream size                              : 3.76 GiB (92%)
Language                                 : English
Default                                  : Yes
Forced                                   : No
Color range                              : Limited
Color primaries                          : BT.709
Transfer characteristics                 : BT.709
Matrix coefficients                      : BT.709

Audio
ID                                       : 2
Format                                   : AC-3
Format/Info                              : Audio Coding 3
Commercial name                          : Dolby Digital
Codec ID                                 : A_AC3
Duration                                 : 1 h 57 min
Bit rate mode                            : Constant
Bit rate                                 : 384 kb/s
Channel(s)                               : 6 channels
Channel layout                           : L R C LFE Ls Rs
Sampling rate                            : 48.0 kHz
Frame rate                               : 31.250 FPS (1536 SPF)
Compression mode                         : Lossy
Delay relative to video                  : -40 ms
Stream size                              : 322 MiB (8%)
Language                                 : Danish
Service kind                             : Complete Main
Default                                  : No
Forced                                   : No

Menu
00:00:00.000                             : en:1
00:15:17.000                             : en:2
00:30:45.000                             : en:3
00:45:00.000                             : en:4
00:58:55.000                             : en:5
01:14:47.000                             : en:6
01:30:39.000                             : en:7
01:52:00.000                             : en:8

Subtitulos

Trailer