67
PUNTOS
Calificar
CALIFICA
Calificar
Califica y/o escribe un comentario sobre la película.
Comentarios en el foroFORO

Le bal des folles (2021)

París. 1885. Eugénie, una mujer joven y apasionada descubre que tiene el poder especial de oír a los muertos. Cuando su familia descubre su secreto, la llevan al hospital Pitié Salpétri?re, una clínica neurológica dirigida por el famoso profesor y pionero de la neurología Dr. Charcot, en la que se internan mujeres diagnosticadas de histeria, locura, epilepsia y otras enfermedades mentales. Su destino se entrelaza con el de Genevi?ve, una enfermera del hospital a quién la vida se le está pasando de largo. Su encuentro cambiará el futuro de ambas mientras se preparan para el "Bal des folles" que organiza anualmente el hospital.
Director Mélanie Laurent
Actores Lou de La?ge, Mélanie Laurent, Emmanuelle Bercot
Duración 122 min
País France
Streaming (Servicio externo)
Grupo: NPMS
Versión: WEB-DL H264 1080p
Tamaño: 8.3 GB
Video
ID : 1
Format : AVC
Format/Info : Advanced Video Codec
Format profile : [email protected]
Format settings : CABAC / 4 Ref Frames
Format settings, CABAC : Yes
Format settings, Reference frames : 4 frames
Codec ID : V_MPEG4/ISO/AVC
Duration : 2 h 1 min
Bit rate mode : Constant
Bit rate : 9 171 kb/s
Nominal bit rate : 10 000 kb/s
Width : 1 920 pixels
Height : 800 pixels
Display aspect ratio : 2.40:1
Frame rate mode : Constant
Frame rate : 24.000 FPS
Color space : YUV
Chroma subsampling : 4:2:0
Bit depth : 8 bits
Scan type : Progressive
Bits/(Pixel*Frame) : 0.249
Stream size : 7.80 GiB (93%)
Default : Yes
Forced : No
Color range : Limited
Color primaries : BT.709
Transfer characteristics : BT.709
Matrix coefficients : BT.709

Audio
ID : 2
Format : E-AC-3
Format/Info : Enhanced AC-3
Commercial name : Dolby Digital Plus
Codec ID : A_EAC3
Duration : 2 h 1 min
Bit rate mode : Constant
Bit rate : 640 kb/s
Channel(s) : 6 channels
Channel layout : L R C LFE Ls Rs
Sampling rate : 48.0 kHz
Frame rate : 31.250 FPS (1536 SPF)
Compression mode : Lossy
Stream size : 558 MiB (7%)
Title : French
Language : French
Service kind : Complete Main
Default : Yes
Forced : No

Subtitulos

Trailer