61
PUNTOS
Calificar
CALIFICA
Calificar
Califica y/o escribe un comentario sobre la película.
Comentarios en el foroFORO

Sepelenmis Ölümler Arasinda (2020)

Davud es un joven incomprendido que vive en una búsqueda constante de su "verdadera" familia, aquellos junto a quienes cree que volverá a sentir el amor. Un día cualquiera experimenta una serie de inesperados acontecimientos con distintas personas que le llevan a protagonizar un viaje de descubrimiento personal. Incapaz de reconocer a su "otra mitad" que ahora despierta, decide aceptar que el miedo a la muerte será siempre una constante en su vida, un hecho que le permite regresar al lugar en el que siempre vivió. Allí le espera aquello que tanto ansiaba: el verdadero amor. Sin embargo, tal vez sea ya demasiado tarde para él.
Director Hilal Baydarov
Actores Orkhan Iskandarli, Rana Asgarova, Huseyn Nasirov
Duración 88 min
País Azerbaijan, Mexico, United States
Streaming (Servicio externo)
Grupo: gooz
Versión: WEB x264 720p
Tamaño: 1.6 GB
General
Unique ID : 135921835081169486538244667422076477220 (0x664197DDC86D61C8C2E85E8939E29F24)
Complete name : In.Between.Dying.2020.720p.WEB.x264-gooz.mkv
Format : Matroska
Format version : Version 4
File size : 1.56 GiB
Duration : 1 h 32 min
Overall bit rate : 2 420 kb/s
Encoded date : UTC 2021-02-03 19:31:35
Writing application : mkvmerge v49.0.0 ('Sick Of Losing Soulmates') 64-bit
Writing library : libebml v1.4.0 + libmatroska v1.6.1 / Lavf58.42.100
Comment : Ripped by gooz

Video
ID : 1
Format : AVC
Format/Info : Advanced Video Codec
Format profile : [email protected]
Format settings : CABAC / 8 Ref Frames
Format settings, CABAC : Yes
Format settings, Reference frames : 8 frames
Codec ID : V_MPEG4/ISO/AVC
Duration : 1 h 32 min
Bit rate : 2 290 kb/s
Width : 1 280 pixels
Height : 536 pixels
Display aspect ratio : 2.40:1
Frame rate mode : Constant
Frame rate : 24.000 FPS
Color space : YUV
Chroma subsampling : 4:2:0
Bit depth : 8 bits
Scan type : Progressive
Bits/(Pixel*Frame) : 0.139
Stream size : 1.48 GiB (95%)
Writing library : x264 core 159
Encoding settings : cabac=1 / ref=8 / deblock=1:-3:-3 / analyse=0x3:0x133 / me=umh / subme=9 / psy=1 / psy_rd=1.00:0.00 / mixed_ref=1 / me_range=24 / chroma_me=1 / trellis=2 / 8x8dct=1 / cqm=0 / deadzone=21,11 / fast_pskip=0 / chroma_qp_offset=-2 / threads=12 / lookahead_threads=1 / sliced_threads=0 / nr=0 / decimate=1 / interlaced=0 / bluray_compat=0 / constrained_intra=0 / bframes=5 / b_pyramid=2 / b_adapt=2 / b_bias=0 / direct=3 / weightb=1 / open_gop=0 / weightp=2 / keyint=250 / keyint_min=24 / scenecut=40 / intra_refresh=0 / rc_lookahead=30 / rc=crf / mbtree=1 / crf=18.0 / qcomp=0.60 / qpmin=0 / qpmax=69 / qpstep=4 / ip_ratio=1.40 / aq=1:1.00
Default : Yes
Forced : No

Audio
ID : 2
Format : AAC LC
Format/Info : Advanced Audio Codec Low Complexity
Codec ID : A_AAC-2
Duration : 1 h 32 min
Bit rate : 128 kb/s
Channel(s) : 2 channels
Channel layout : L R
Sampling rate : 48.0 kHz
Frame rate : 46.875 FPS (1024 SPF)
Compression mode : Lossy
Stream size : 85.0 MiB (5%)
Language : Azerbaijani
Default : Yes
Forced : No

Text #1
ID : 3
Format : UTF-8
Codec ID : S_TEXT/UTF8
Codec ID/Info : UTF-8 Plain Text
Duration : 1 h 30 min
Bit rate : 35 b/s
Count of elements : 780
Stream size : 23.3 KiB (0%)
Language : Portuguese
Default : No
Forced : No

Text #2
ID : 4
Format : UTF-8
Codec ID : S_TEXT/UTF8
Codec ID/Info : UTF-8 Plain Text
Duration : 1 h 29 min
Bit rate : 34 b/s
Count of elements : 779
Stream size : 22.8 KiB (0%)
Language : English
Default : Yes
Forced : No
Trailer