63
PUNTOS
Calificar
CALIFICA
Calificar
Califica y/o escribe un comentario sobre la película.
Comentarios en el foroFORO

La nuit venue (2019)

París, a?o 2018. Jin, un joven inmigrante chino sin papeles, trabaja para la mafia china como chófer nocturno de VTC. El ritmo de una música electrónica sofisticada, herencia de su trabajo como pinchadiscos en Pekín, acompa?a los trayectos. Una noche se sube al coche Noémie, una atractiva bailarina de streptease y chica de compa?ía.
Director Frédéric Farrucci
Actores Guang Huo, Camélia Jordana, Xun Liang
Duración 95 min
País France
Streaming (Servicio externo)
Grupo: PREUMS
Versión: WEB x264 720p
Tamaño: 2.3 GB
General
Unique ID                                : 120652195405329499739201416248343771232 (0x5AC4C48159800BF7BF3098759711B860)
Complete name                            : La.Nuit.Venue.2020.FRENCH.720p.WEB.x264-PREUMS.mkv
Format                                   : Matroska
Format version                           : Version 4
File size                                : 2.11 GiB
Duration                                 : 1 h 34 min
Overall bit rate                         : 3 180 kb/s
Encoded date                             : UTC 2020-11-26 18:20:32
Writing application                      : mkvmerge v51.0.0 ('I Wish') 64-bit
Writing library                          : libebml v1.4.0 + libmatroska v1.6.2

Video
ID                                       : 1
Format                                   : AVC
Format/Info                              : Advanced Video Codec
Format profile                           : [email protected]
Format settings                          : 3 Ref Frames
Format settings, CABAC                   : No
Format settings, Reference frames        : 3 frames
Codec ID                                 : V_MPEG4/ISO/AVC
Duration                                 : 1 h 34 min
Bit rate                                 : 2 794 kb/s
Width                                    : 1 280 pixels
Height                                   : 692 pixels
Display aspect ratio                     : 1.85:1
Original display aspect ratio            : 1.85:1
Frame rate mode                          : Constant
Frame rate                               : 24.000 FPS
Color space                              : YUV
Chroma subsampling                       : 4:2:0
Bit depth                                : 8 bits
Scan type                                : Progressive
Bits/(Pixel*Frame)                       : 0.131
Stream size                              : 1.85 GiB (88%)
Language                                 : French
Default                                  : Yes
Forced                                   : No
Color range                              : Limited
Color primaries                          : BT.709
Transfer characteristics                 : BT.709
Matrix coefficients                      : BT.709

Audio
ID                                       : 2
Format                                   : AC-3
Format/Info                              : Audio Coding 3
Commercial name                          : Dolby Digital
Codec ID                                 : A_AC3
Duration                                 : 1 h 34 min
Bit rate mode                            : Constant
Bit rate                                 : 384 kb/s
Channel(s)                               : 6 channels
Channel layout                           : L R C LFE Ls Rs
Sampling rate                            : 48.0 kHz
Frame rate                               : 31.250 FPS (1536 SPF)
Compression mode                         : Lossy
Delay relative to video                  : -42 ms
Stream size                              : 261 MiB (12%)
Language                                 : French
Service kind                             : Complete Main
Default                                  : Yes
Forced                                   : No

Menu
00:00:00.000                             : en:Chapitre 01
00:08:35.000                             : en:Chapitre 02
00:15:25.000                             : en:Chapitre 03
00:25:42.000                             : en:Chapitre 04
00:36:18.000                             : en:Chapitre 05
00:45:11.000                             : en:Chapitre 06
00:54:44.000                             : en:Chapitre 07
01:08:18.000                             : en:Chapitre 08
01:16:48.000                             : en:Chapitre 09
01:25:19.000                             : en:Chapitre 10

Subtitulos

Grupo: PREUMS
Versión: WEB x264 1080p
Tamaño: 3.9 GB
General
Unique ID                                : 31401924496055188703842352615862167373 (0x179FCA695696DB1A305B0C0DFC31E74D)
Complete name                            : La.Nuit.Venue.2020.FRENCH.1080p.WEB.x264-PREUMS.mkv
Format                                   : Matroska
Format version                           : Version 4
File size                                : 3.66 GiB
Duration                                 : 1 h 34 min
Overall bit rate                         : 5 523 kb/s
Encoded date                             : UTC 2020-11-26 18:19:58
Writing application                      : mkvmerge v51.0.0 ('I Wish') 64-bit
Writing library                          : libebml v1.4.0 + libmatroska v1.6.2

Video
ID                                       : 1
Format                                   : AVC
Format/Info                              : Advanced Video Codec
Format profile                           : [email protected]
Format settings                          : CABAC / 4 Ref Frames
Format settings, CABAC                   : Yes
Format settings, Reference frames        : 4 frames
Codec ID                                 : V_MPEG4/ISO/AVC
Duration                                 : 1 h 34 min
Bit rate                                 : 5 137 kb/s
Width                                    : 1 916 pixels
Height                                   : 1 036 pixels
Display aspect ratio                     : 1.85:1
Frame rate mode                          : Constant
Frame rate                               : 24.000 FPS
Color space                              : YUV
Chroma subsampling                       : 4:2:0
Bit depth                                : 8 bits
Scan type                                : Progressive
Bits/(Pixel*Frame)                       : 0.108
Stream size                              : 3.41 GiB (93%)
Language                                 : French
Default                                  : Yes
Forced                                   : No
Color range                              : Limited
Color primaries                          : BT.709
Transfer characteristics                 : BT.709
Matrix coefficients                      : BT.709

Audio
ID                                       : 2
Format                                   : AC-3
Format/Info                              : Audio Coding 3
Commercial name                          : Dolby Digital
Codec ID                                 : A_AC3
Duration                                 : 1 h 34 min
Bit rate mode                            : Constant
Bit rate                                 : 384 kb/s
Channel(s)                               : 6 channels
Channel layout                           : L R C LFE Ls Rs
Sampling rate                            : 48.0 kHz
Frame rate                               : 31.250 FPS (1536 SPF)
Compression mode                         : Lossy
Delay relative to video                  : -42 ms
Stream size                              : 261 MiB (7%)
Language                                 : French
Service kind                             : Complete Main
Default                                  : Yes
Forced                                   : No

Menu
00:00:00.000                             : en:Chapitre 01
00:08:35.000                             : en:Chapitre 02
00:15:25.000                             : en:Chapitre 03
00:25:42.000                             : en:Chapitre 04
00:36:18.000                             : en:Chapitre 05
00:45:11.000                             : en:Chapitre 06
00:54:44.000                             : en:Chapitre 07
01:08:18.000                             : en:Chapitre 08
01:16:48.000                             : en:Chapitre 09
01:25:19.000                             : en:Chapitre 10

Subtitulos

Trailer