62
PUNTOS
Calificar
CALIFICA
Calificar
Califica y/o escribe un comentario sobre la película.
Comentarios en el foroFORO

Surge (2020)

El callado y tímido Joseph (Ben Whishaw) vive de forma modesta en Londres, alternando entre su solitario apartamento y el aeropuerto en el que trabaja como miembro de seguridad. Su cumplea?os pasa sin que ninguno de sus compa?eros lo sepa, y tan solo se celebra en casa de sus irritables padres. Algo parece estar cambiando bajo la pacífica apariencia de Joseph. Tras una serie de extra?os incidentes, decide dejar atrás sus buenos modales para protagonizar una increíble y frenética aventura por las calles de la ciudad.
Director Aneil Karia
Actores Ben Whishaw, Ellie Haddington, Laurence Spellman
Duración 105 min
País United Kingdom
Streaming (Servicio externo)
Grupo: FGT
Versión: WEB-DL H264 1080p
Tamaño: 3.5 GB
Video
ID : 1
Format : AVC
Format/Info : Advanced Video Codec
Format profile : [email protected]
Format settings : CABAC / 5 Ref Frames
Format settings, CABAC : Yes
Format settings, Reference frames : 5 frames
Codec ID : V_MPEG4/ISO/AVC
Duration : 1 h 39 min
Bit rate : 4 569 kb/s
Width : 1 916 pixels
Height : 800 pixels
Display aspect ratio : 2.40:1
Frame rate mode : Constant
Frame rate : 24.000 FPS
Color space : YUV
Chroma subsampling : 4:2:0
Bit depth : 8 bits
Scan type : Progressive
Bits/(Pixel*Frame) : 0.124
Stream size : 3.18 GiB (92%)
Language : English
Default : Yes
Forced : No
Color range : Limited
Color primaries : BT.709
Transfer characteristics : BT.709
Matrix coefficients : BT.709

Audio
ID : 2
Format : AC-3
Format/Info : Audio Coding 3
Commercial name : Dolby Digital
Codec ID : A_AC3
Duration : 1 h 39 min
Bit rate mode : Constant
Bit rate : 384 kb/s
Channel(s) : 6 channels
Channel layout : L R C LFE Ls Rs
Sampling rate : 48.0 kHz
Frame rate : 31.250 FPS (1536 SPF)
Compression mode : Lossy
Stream size : 273 MiB (8%)
Language : English
Service kind : Complete Main
Default : Yes
Forced : No

Text
ID : 3
Format : UTF-8
Codec ID : S_TEXT/UTF8
Codec ID/Info : UTF-8 Plain Text
Duration : 1 h 29 min
Bit rate : 39 b/s
Count of elements : 825
Stream size : 25.6 KiB (0%)
Language : English
Default : Yes
Forced : No

Subtitulos

Trailer