59
PUNTOS
Calificar
CALIFICA
Calificar
Califica y/o escribe un comentario sobre la película.
Comentarios en el foroFORO

Place publique (2018)

Castro es un antiguo presentador estrella de la televisión, ahora en plena decadencia. Un día su chófer, Manu, le lleva a la inauguración de la nueva casa de su productora y vieja amiga, Nathalie, a las afueras de París. Hél?ne, hermana de Nathalie y exmujer de Castro, también está invitada. Cuando eran jóvenes compartían los mismos ideales pero, con el tiempo, Castro se ha convertido al pragmatismo (o más bien al cinismo) mientras que Hél?ne se ha mantenido fiel a sus principios. Nina, la hija de ambos, quien acaba de escribir un libro inspirado en la vida de sus padres, se suma a la fiesta. Mientras que Castro asiste, impotente, a la caída inexorable de sus índices de audiencia, Hél?ne intenta desesperadamente imponer la presencia de una refugiada afgana en su programa. Y mientras, la fiesta sigue por todo lo alto.
Director Agn?s Jaoui
Actores Agn?s Jaoui, Jean-Pierre Bacri, Léa Drucker
Duración 98 min
País France
Streaming (Servicio externo)
Grupo: UTT
Versión: BDRip x264 720p
Tamaño: 4.7 GB
General
Unique ID                                : 154021314666113224458524883123651881258 (0x73DF6D1B5F9A2985E543B913EBC6292A)
Complete name                            : Place.Publique.2018.FRENCH.720p.BluRay.DTS.x264-UTT.mkv
Format                                   : Matroska
Format version                           : Version 4
File size                                : 4.37 GiB
Duration                                 : 1 h 38 min
Overall bit rate mode                    : Variable
Overall bit rate                         : 6 344 kb/s
Encoded date                             : UTC 2018-08-14 19:07:59
Writing application                      : mkvmerge v20.0.0 ('I Am The Sun') 32-bit
Writing library                          : libebml v1.3.5 + libmatroska v1.4.8

Video
ID                                       : 1
Format                                   : AVC
Format/Info                              : Advanced Video Codec
Format profile                           : [email protected]
Format settings                          : CABAC / 4 Ref Frames
Format settings, CABAC                   : Yes
Format settings, Reference frames        : 4 frames
Codec ID                                 : V_MPEG4/ISO/AVC
Duration                                 : 1 h 38 min
Bit rate mode                            : Variable
Bit rate                                 : 4 834 kb/s
Maximum bit rate                         : 40.0 Mb/s
Width                                    : 1 280 pixels
Height                                   : 536 pixels
Display aspect ratio                     : 2.40:1
Frame rate mode                          : Constant
Frame rate                               : 23.976 (23976/1000) FPS
Color space                              : YUV
Chroma subsampling                       : 4:2:0
Bit depth                                : 8 bits
Scan type                                : Progressive
Bits/(Pixel*Frame)                       : 0.294
Stream size                              : 3.33 GiB (76%)
Writing library                          : x264 core 148 r2665 a01e339
Encoding settings                        : cabac=1 / ref=5 / deblock=1:-1:-1 / analyse=0x3:0x113 / me=umh / subme=7 / psy=1 / psy_rd=1.00:0.15 / mixed_ref=1 / me_range=16 / chroma_me=1 / trellis=1 / 8x8dct=1 / cqm=0 / deadzone=21,11 / fast_pskip=1 / chroma_qp_offset=-3 / threads=9 / lookahead_threads=1 / sliced_threads=0 / slices=4 / nr=0 / decimate=1 / interlaced=0 / bluray_compat=1 / constrained_intra=0 / bframes=3 / b_pyramid=1 / b_adapt=1 / b_bias=0 / direct=1 / weightb=1 / open_gop=1 / weightp=1 / keyint=240 / keyint_min=1 / scenecut=40 / intra_refresh=0 / rc_lookahead=40 / rc=2pass / mbtree=1 / bitrate=4834 / ratetol=1.0 / qcomp=0.60 / qpmin=0 / qpmax=69 / qpstep=4 / cplxblur=20.0 / qblur=0.5 / vbv_maxrate=40000 / vbv_bufsize=30000 / nal_hrd=vbr / filler=0 / ip_ratio=1.40 / aq=1:1.00
Default                                  : Yes
Forced                                   : No
Color range                              : Limited
Color primaries                          : BT.709
Transfer characteristics                 : BT.709
Matrix coefficients                      : BT.709

Audio
ID                                       : 2
Format                                   : DTS
Format/Info                              : Digital Theater Systems
Codec ID                                 : A_DTS
Duration                                 : 1 h 38 min
Bit rate mode                            : Constant
Bit rate                                 : 1 509 kb/s
Channel(s)                               : 6 channels
Channel layout                           : C L R Ls Rs LFE
Sampling rate                            : 48.0 kHz
Frame rate                               : 93.750 FPS (512 SPF)
Bit depth                                : 24 bits
Compression mode                         : Lossy
Stream size                              : 1.04 GiB (24%)
Language                                 : French
Default                                  : Yes
Forced                                   : No

Menu
00:00:00.000                             : fr:(01)00:00:00:000
00:07:11.639                             : fr:(02)00:07:11:639
00:16:18.018                             : fr:(03)00:16:18:018
00:25:52.717                             : fr:(04)00:25:52:717
00:34:19.265                             : fr:(05)00:34:19:265
00:42:09.193                             : fr:(06)00:42:09:193
00:50:24.730                             : fr:(07)00:50:24:730
00:55:36.833                             : fr:(08)00:55:36:833
01:07:19.243                             : fr:(09)01:07:19:243
01:16:37.759                             : fr:(10)01:16:37:759
01:24:53.129                             : fr:(11)01:24:53:129
01:31:52.423                             : fr:(12)01:31:52:423

Grupo: UTT
Versión: BDRip x264 1080p
Tamaño: 7.1 GB
General
Unique ID                                : 77576662696173962956191829055970618621 (0x3A5CB8C5BC88CA46127AD8344E6A2CFD)
Complete name                            : Place.Publique.2018.FRENCH.1080p.BluRay.DTS.x264-UTT.mkv
Format                                   : Matroska
Format version                           : Version 4
File size                                : 6.57 GiB
Duration                                 : 1 h 38 min
Overall bit rate mode                    : Variable
Overall bit rate                         : 9 526 kb/s
Encoded date                             : UTC 2018-08-14 21:04:51
Writing application                      : mkvmerge v20.0.0 ('I Am The Sun') 32-bit
Writing library                          : libebml v1.3.5 + libmatroska v1.4.8

Video
ID                                       : 1
Format                                   : AVC
Format/Info                              : Advanced Video Codec
Format profile                           : [email protected]
Format settings                          : CABAC / 4 Ref Frames
Format settings, CABAC                   : Yes
Format settings, Reference frames        : 4 frames
Codec ID                                 : V_MPEG4/ISO/AVC
Duration                                 : 1 h 38 min
Bit rate mode                            : Variable
Bit rate                                 : 8 009 kb/s
Maximum bit rate                         : 40.0 Mb/s
Width                                    : 1 920 pixels
Height                                   : 808 pixels
Display aspect ratio                     : 2.40:1
Frame rate mode                          : Constant
Frame rate                               : 23.976 (23976/1000) FPS
Color space                              : YUV
Chroma subsampling                       : 4:2:0
Bit depth                                : 8 bits
Scan type                                : Progressive
Bits/(Pixel*Frame)                       : 0.215
Stream size                              : 5.52 GiB (84%)
Writing library                          : x264 core 148 r2665 a01e339
Encoding settings                        : cabac=1 / ref=5 / deblock=1:-1:-1 / analyse=0x3:0x113 / me=umh / subme=7 / psy=1 / psy_rd=1.00:0.15 / mixed_ref=1 / me_range=16 / chroma_me=1 / trellis=1 / 8x8dct=1 / cqm=0 / deadzone=21,11 / fast_pskip=1 / chroma_qp_offset=-3 / threads=9 / lookahead_threads=1 / sliced_threads=0 / slices=4 / nr=0 / decimate=1 / interlaced=0 / bluray_compat=1 / constrained_intra=0 / bframes=3 / b_pyramid=1 / b_adapt=1 / b_bias=0 / direct=1 / weightb=1 / open_gop=1 / weightp=1 / keyint=240 / keyint_min=1 / scenecut=40 / intra_refresh=0 / rc_lookahead=40 / rc=2pass / mbtree=1 / bitrate=8009 / ratetol=1.0 / qcomp=0.60 / qpmin=0 / qpmax=69 / qpstep=4 / cplxblur=20.0 / qblur=0.5 / vbv_maxrate=40000 / vbv_bufsize=30000 / nal_hrd=vbr / filler=0 / ip_ratio=1.40 / aq=1:1.00
Default                                  : Yes
Forced                                   : No
Color range                              : Limited
Color primaries                          : BT.709
Transfer characteristics                 : BT.709
Matrix coefficients                      : BT.709

Audio
ID                                       : 2
Format                                   : DTS
Format/Info                              : Digital Theater Systems
Codec ID                                 : A_DTS
Duration                                 : 1 h 38 min
Bit rate mode                            : Constant
Bit rate                                 : 1 509 kb/s
Channel(s)                               : 6 channels
Channel layout                           : C L R Ls Rs LFE
Sampling rate                            : 48.0 kHz
Frame rate                               : 93.750 FPS (512 SPF)
Bit depth                                : 24 bits
Compression mode                         : Lossy
Stream size                              : 1.04 GiB (16%)
Language                                 : French
Default                                  : Yes
Forced                                   : No

Text
ID                                       : 3
Format                                   : PGS
Muxing mode                              : zlib
Codec ID                                 : S_HDMV/PGS
Codec ID/Info                            : Picture based subtitle format used on BDs/HD-DVDs
Duration                                 : 1 h 38 min
Bit rate                                 : 32.7 kb/s
Count of elements                        : 3412
Stream size                              : 23.0 MiB (0%)
Title                                    : SDH
Language                                 : French
Default                                  : No
Forced                                   : No

Menu
00:00:00.000                             : fr:(01)00:00:00:000
00:07:11.639                             : fr:(02)00:07:11:639
00:16:18.018                             : fr:(03)00:16:18:018
00:25:52.717                             : fr:(04)00:25:52:717
00:34:19.265                             : fr:(05)00:34:19:265
00:42:09.193                             : fr:(06)00:42:09:193
00:50:24.730                             : fr:(07)00:50:24:730
00:55:36.833                             : fr:(08)00:55:36:833
01:07:19.243                             : fr:(09)01:07:19:243
01:16:37.759                             : fr:(10)01:16:37:759
01:24:53.129                             : fr:(11)01:24:53:129
01:31:52.423                             : fr:(12)01:31:52:423

Trailer