77
PUNTOS
Calificar
CALIFICA
Calificar
Califica y/o escribe un comentario sobre la película.
Comentarios en el foroFORO

Ise Yarar Bir Sey (2017)

Leyla de 42 a?os, abogada y poeta, toma el tren de larga distancia para asistir a su cena de reunión de la escuela secundaria. En el tren, conoce a Canan, una joven estudiante de enfermería en apuros. A medida que se desarrolla la conversación, Leyla descubre que Canan está viajando para ayudar a suicidarse a un hombre paralítico, Yavuz, que desea morir.
Director Pelin Esmer
Actores Basak Köklükaya, Öykü Karayel, Yigit Özsener, Aysenil Samlioglu
Duración 104 min
Streaming (Servicio externo)
Grupo: TEPES
Versión: WEB-DL H264 1080p
Tamaño: 3.5 GB
General
Unique ID                                : 232780999593801925770330410290643448058 (0xAF1FFD60ECD329CFAC327D6D6FD7B0FA)
Complete name                            : Ise Yarar Bir Sey 2017 1080p AMZN WEB-DL x264 EAC3 - TEPES .mkv
Format                                   : Matroska
Format version                           : Version 4
File size                                : 3.54 GiB
Duration                                 : 1 h 42 min
Overall bit rate                         : 4 938 kb/s
Encoded date                             : UTC 2020-11-05 04:41:12
Writing application                      : mkvmerge v31.0.0 ('Dolores In A Shoestand') 64-bit
Writing library                          : libebml v1.3.6 + libmatroska v1.4.9

Video
ID                                       : 1
Format                                   : AVC
Format/Info                              : Advanced Video Codec
Format profile                           : [email protected]
Format settings                          : CABAC / 4 Ref Frames
Format settings, CABAC                   : Yes
Format settings, Reference frames        : 4 frames
Codec ID                                 : V_MPEG4/ISO/AVC
Duration                                 : 1 h 42 min
Bit rate mode                            : Constant
Bit rate                                 : 4 712 kb/s
Nominal bit rate                         : 10 000 kb/s
Width                                    : 1 920 pixels
Height                                   : 800 pixels
Display aspect ratio                     : 2.40:1
Frame rate mode                          : Constant
Frame rate                               : 25.000 FPS
Color space                              : YUV
Chroma subsampling                       : 4:2:0
Bit depth                                : 8 bits
Scan type                                : Progressive
Bits/(Pixel*Frame)                       : 0.123
Stream size                              : 3.38 GiB (95%)
Default                                  : Yes
Forced                                   : No
Color range                              : Limited
Color primaries                          : BT.709
Transfer characteristics                 : BT.709
Matrix coefficients                      : BT.709

Audio
ID                                       : 2
Format                                   : E-AC-3
Format/Info                              : Enhanced AC-3
Commercial name                          : Dolby Digital Plus
Codec ID                                 : A_EAC3
Duration                                 : 1 h 42 min
Bit rate mode                            : Constant
Bit rate                                 : 224 kb/s
Channel(s)                               : 2 channels
Channel layout                           : L R
Sampling rate                            : 48.0 kHz
Frame rate                               : 31.250 FPS (1536 SPF)
Compression mode                         : Lossy
Stream size                              : 165 MiB (5%)
Language                                 : Turkish
Service kind                             : Complete Main
Default                                  : Yes
Forced                                   : No

Text #1
ID                                       : 3
Format                                   : UTF-8
Codec ID                                 : S_TEXT/UTF8
Codec ID/Info                            : UTF-8 Plain Text
Duration                                 : 1 h 35 min
Bit rate                                 : 63 b/s
Count of elements                        : 1277
Stream size                              : 44.4 KiB (0%)
Language                                 : English
Default                                  : No
Forced                                   : No

Text #2
ID                                       : 4
Format                                   : UTF-8
Codec ID                                 : S_TEXT/UTF8
Codec ID/Info                            : UTF-8 Plain Text
Duration                                 : 1 h 42 min
Bit rate                                 : 74 b/s
Count of elements                        : 1458
Stream size                              : 55.3 KiB (0%)
Language                                 : Turkish
Default                                  : No
Forced                                   : No

Subtitulos

Trailer