77
PUNTOS
Calificar
CALIFICA
Calificar
Califica y/o escribe un comentario sobre la película.
Comentarios en el foroFORO

Kamera wo tomeruna! (2017)

La grabación de una película de serie B de muertos vivientes es interrumpida por un auténtico apocalipsis zombi.
Director Shin'ichirô Ueda
Actores Takayuki Hamatsu, Yuzuki Akiyama, Harumi Shuhama
Duración 96 min
País Japan
Streaming (Servicio externo)
Grupo: CADAVER
Versión: BDRip x264
Tamaño: 1.1 GB
One.Cut.of.the.Dead.2017.LiMiTED.BDRip.x264-CADAVER
Duration.......: 1 h 35 min
Video .........: x264 @ CRF 19 (1597 Kbps)
Frame Rate.....: 23.976 fps
Resolution.....: 720x406
Audio..........: Japanese 2ch AAC @ 112 Kbps
Subtitles......: English
Size...........: 1.1 GB
IMDB...........: https://www.imdb.com/title/tt7914416

Subtitulos

Grupo: CADAVER
Versión: BDRip x264 720p
Tamaño: 4.4 GB
One.Cut.of.the.Dead.2017.LiMiTED.720p.BluRay.x264-CADAVER
Duration.......: 1 h 35 min
Video .........: x264 @ 5022 Kbps
Frame Rate.....: 23.976 fps
Resolution.....: 1280x720
Audio..........: Japanese 2ch DTS @ 1509 Kbps
Subtitles......: English
Size...........: 4.4 GB
IMDB...........: https://www.imdb.com/title/tt7914416
Grupo: WiKi
Versión: BDRip x264 720p
Tamaño: 5.5 GB
Video
ID : 1
Format : AVC
Format/Info : Advanced Video Codec
Format profile : [email protected]
Format settings : CABAC / 9 Ref Frames
Format settings, CABAC : Yes
Format settings, ReFrames : 9 frames
Codec ID : V_MPEG4/ISO/AVC
Duration : 1 h 35 min
Bit rate : 7 508 kb/s
Width : 1 280 pixels
Height : 720 pixels
Display aspect ratio : 16:9
Frame rate mode : Constant
Frame rate : 23.976 (24000/1001) FPS
Color space : YUV
Chroma subsampling : 4:2:0
Bit depth : 8 bits
Scan type : Progressive
Bits/(Pixel*Frame) : 0.340
Stream size : 5.03 GiB (92%)
Writing library : x264 core 129 r2245+704+36 8e61944 tMod+MixAQ [[email protected]:2:0 X86_64]
Encoding settings : cabac=1 / ref=9 / deblock=1:-3:-3 / analyse=0x3:0x133 / me=umh / subme=11 / psy=1 / fade_compensate=0.00 / psy_rd=1.05:0.10 / mixed_ref=1 / me_range=32 / chroma_me=1 / trellis=2 / 8x8dct=1 / cqm=0 / deadzone=21,11 / fast_pskip=0 / chroma_qp_offset=-3 / threads=18 / lookahead_threads=3 / sliced_threads=0 / nr=0 / decimate=0 / interlaced=0 / bluray_compat=0 / constrained_intra=0 / fgo=0 / bframes=10 / b_pyramid=2 / b_adapt=2 / b_bias=0 / direct=3 / weightb=1 / open_gop=0 / weightp=2 / keyint=250 / keyint_min=23 / scenecut=40 / intra_refresh=0 / rc=2pass / mbtree=0 / bitrate=7508 / ratetol=1.0 / qcomp=0.70 / qpmin=0 / qpmax=69 / qpstep=4 / cplxblur=20.0 / qblur=0.5 / ip_ratio=1.40 / pb_ratio=1.30 / aq=1 / aq-strength=0.90 / aq-sensitivity=10.00 / aq-ifactor=1.00 / aq-pfactor=1.00 / aq-bfactor=1.00 / aq2=0
Language : Japanese
Default : Yes
Forced : No

Audio
ID : 2
Format : AC-3
Format/Info : Audio Coding 3
Commercial name : Dolby Digital
Codec ID : A_AC3
Duration : 1 h 35 min
Bit rate mode : Constant
Bit rate : 640 kb/s
Channel(s) : 2 channels
Channel layout : L R
Sampling rate : 48.0 kHz
Frame rate : 31.250 FPS (1536 SPF)
Bit depth : 16 bits
Compression mode : Lossy
Stream size : 439 MiB (8%)
Language : Japanese
Service kind : Complete Main
Default : Yes
Forced : No

Text #1
ID : 3
Format : ASS
Codec ID : S_TEXT/ASS
Codec ID/Info : Advanced Sub Station Alpha
Duration : 1 h 35 min
Bit rate : 68 b/s
Count of elements : 1081
Compression mode : Lossless
Stream size : 47.9 KiB (0%)
Title : Simplified
Language : Chinese
Default : Yes
Forced : No

Text #2
ID : 4
Format : ASS
Codec ID : S_TEXT/ASS
Codec ID/Info : Advanced Sub Station Alpha
Duration : 1 h 35 min
Bit rate : 68 b/s
Count of elements : 1081
Compression mode : Lossless
Stream size : 47.9 KiB (0%)
Title : Traditional
Default : No
Forced : No

Menu
00:00:00.000 : en:00:00:00.000
00:37:17.234 : en:00:37:17.234
00:40:11.575 : en:00:40:11.575
00:54:22.300 : en:00:54:22.300
01:03:08.576 : en:01:03:08.576
01:12:45.569 : en:01:12:45.569
01:26:39.319 : en:01:26:39.319
01:32:36.425 : en:01:32:36.425
Grupo: CADAVER
Versión: BDRip x264 1080p
Tamaño: 7.6 GB
One.Cut.of.the.Dead.2017.LiMiTED.1080p.BluRay.x264-CADAVER
Duration.......: 1 h 35 min
Video .........: x264 @ 9926 Kbps
Frame Rate.....: 23.976 fps
Resolution.....: 1920x1080
Audio..........: Japanese 2ch DTS @ 1509 Kbps
Subtitles......: English
Size...........: 7.7 GB
IMDB...........: https://www.imdb.com/title/tt7914416

Subtitulos

Grupo: WiKi
Versión: BDRip x264 1080p
Tamaño: 12.0 GB
Video
ID : 1
Format : AVC
Format/Info : Advanced Video Codec
Format profile : [email protected]
Format settings : CABAC / 4 Ref Frames
Format settings, CABAC : Yes
Format settings, ReFrames : 4 frames
Codec ID : V_MPEG4/ISO/AVC
Duration : 1 h 35 min
Bit rate : 17.3 Mb/s
Width : 1 920 pixels
Height : 1 080 pixels
Display aspect ratio : 16:9
Frame rate mode : Constant
Frame rate : 23.976 (24000/1001) FPS
Color space : YUV
Chroma subsampling : 4:2:0
Bit depth : 8 bits
Scan type : Progressive
Bits/(Pixel*Frame) : 0.347
Stream size : 11.6 GiB (96%)
Writing library : x264 core 129 r2245+704+36 8e61944 tMod+MixAQ [[email protected]:2:0 X86_64]
Encoding settings : cabac=1 / ref=4 / deblock=1:-3:-3 / analyse=0x3:0x133 / me=umh / subme=11 / psy=1 / fade_compensate=0.00 / psy_rd=1.05:0.10 / mixed_ref=1 / me_range=64 / chroma_me=1 / trellis=2 / 8x8dct=1 / cqm=0 / deadzone=21,11 / fast_pskip=0 / chroma_qp_offset=-3 / threads=18 / lookahead_threads=3 / sliced_threads=0 / nr=0 / decimate=0 / interlaced=0 / bluray_compat=0 / constrained_intra=0 / fgo=0 / bframes=10 / b_pyramid=2 / b_adapt=2 / b_bias=0 / direct=3 / weightb=1 / open_gop=0 / weightp=2 / keyint=250 / keyint_min=23 / scenecut=40 / intra_refresh=0 / rc=2pass / mbtree=0 / bitrate=17262 / ratetol=1.0 / qcomp=0.70 / qpmin=0 / qpmax=69 / qpstep=4 / cplxblur=20.0 / qblur=0.5 / ip_ratio=1.40 / pb_ratio=1.30 / aq=1 / aq-strength=0.90 / aq-sensitivity=10.00 / aq-ifactor=1.00 / aq-pfactor=1.00 / aq-bfactor=1.00 / aq2=0
Language : Japanese
Default : Yes
Forced : No

Audio
ID : 2
Format : AC-3
Format/Info : Audio Coding 3
Commercial name : Dolby Digital
Codec ID : A_AC3
Duration : 1 h 35 min
Bit rate mode : Constant
Bit rate : 640 kb/s
Channel(s) : 2 channels
Channel layout : L R
Sampling rate : 48.0 kHz
Frame rate : 31.250 FPS (1536 SPF)
Bit depth : 16 bits
Compression mode : Lossy
Stream size : 439 MiB (4%)
Language : Japanese
Service kind : Complete Main
Default : Yes
Forced : No

Text #1
ID : 3
Format : ASS
Codec ID : S_TEXT/ASS
Codec ID/Info : Advanced Sub Station Alpha
Duration : 1 h 35 min
Bit rate : 68 b/s
Count of elements : 1081
Compression mode : Lossless
Stream size : 47.9 KiB (0%)
Title : Simplified
Language : Chinese
Default : Yes
Forced : No

Text #2
ID : 4
Format : ASS
Codec ID : S_TEXT/ASS
Codec ID/Info : Advanced Sub Station Alpha
Duration : 1 h 35 min
Bit rate : 68 b/s
Count of elements : 1081
Compression mode : Lossless
Stream size : 47.9 KiB (0%)
Title : Traditional
Default : No
Forced : No

Menu
00:00:00.000 : en:00:00:00.000
00:37:17.234 : en:00:37:17.234
00:40:11.575 : en:00:40:11.575
00:54:22.300 : en:00:54:22.300
01:03:08.576 : en:01:03:08.576
01:12:45.569 : en:01:12:45.569
01:26:39.319 : en:01:26:39.319
01:32:36.425 : en:01:32:36.425
Trailer