67
PUNTOS
Calificar
CALIFICA
Calificar
Califica y/o escribe un comentario sobre la película.
Comentarios en el foroFORO

Au poste! (2018)

Lo que empieza siendo un rutinario interrogatorio se acaba convirtiendo en un auténtico caos cuando una pareja de policías protagonizan una serie de retorcidos eventos repletos de extra?os asesinatos y de humor negro.
Director Quentin Dupieux
Actores Beno?t Poelvoorde, Grégoire Ludig, Marc Fraize, Ana?s Demoustier
Duración 73 min
Streaming (Servicio externo)
Grupo: LOST
Versión: BDRip x264 720p
Tamaño: 3.5 GB
General
Unique ID : 0 (0x0)
Complete name : Au.Poste.2018.FRENCH.720p.BluRay.x264-LOST/Au.Poste.2018.FRENCH.720p.BluRay.x264-LOST.mkv
Format : Matroska
Format version : Version 2
File size : 3.27 GiB
Duration : 1 h 13 min
Overall bit rate : 6 384 kb/s
Writing application : mkvmerge v6.6.0 ('The Edge Of The In Between') built on Dec 1 2013 17:55:00
Writing library : libebml v1.3.0 + libmatroska v1.4.1

Video
ID : 1
Format : AVC
Format/Info : Advanced Video Codec
Format profile : [email protected]
Format settings : CABAC / 5 Ref Frames
Format settings, CABAC : Yes
Format settings, ReFrames : 5 frames
Codec ID : V_MPEG4/ISO/AVC
Duration : 1 h 13 min
Bit rate : 4 876 kb/s
Width : 1 280 pixels
Height : 688 pixels
Display aspect ratio : 1.85:1
Frame rate mode : Constant
Frame rate : 23.976 (24000/1001) FPS
Color space : YUV
Chroma subsampling : 4:2:0
Bit depth : 8 bits
Scan type : Progressive
Bits/(Pixel*Frame) : 0.231
Stream size : 2.44 GiB (74%)
Writing library : x264 core 157 r2935 545de2f
Encoding settings : cabac=1 / ref=5 / deblock=1:0:0 / analyse=0x3:0x113 / me=umh / subme=8 / psy=1 / psy_rd=1.00:0.00 / mixed_ref=1 / me_range=16 / chroma_me=1 / trellis=1 / 8x8dct=1 / cqm=0 / deadzone=21,11 / fast_pskip=1 / chroma_qp_offset=-2 / threads=18 / lookahead_threads=3 / sliced_threads=0 / nr=0 / decimate=1 / interlaced=0 / bluray_compat=0 / constrained_intra=0 / bframes=3 / b_pyramid=2 / b_adapt=2 / b_bias=0 / direct=3 / weightb=1 / open_gop=0 / weightp=2 / keyint=240 / keyint_min=24 / scenecut=40 / intra_refresh=0 / rc_lookahead=50 / rc=2pass / mbtree=1 / bitrate=4876 / ratetol=1.0 / qcomp=0.60 / qpmin=0 / qpmax=69 / qpstep=4 / cplxblur=20.0 / qblur=0.5 / ip_ratio=1.40 / aq=1:1.00
Language : English
Default : Yes
Forced : No

Audio
ID : 2
Format : DTS
Format/Info : Digital Theater Systems
Codec ID : A_DTS
Duration : 1 h 13 min
Bit rate mode : Constant
Bit rate : 1 509 kb/s
Channel(s) : 6 channels
Channel layout : C L R Ls Rs LFE
Sampling rate : 48.0 kHz
Frame rate : 93.750 FPS (512 SPF)
Bit depth : 24 bits
Compression mode : Lossy
Stream size : 792 MiB (24%)
Title : French DTS 1509kbps
Language : French
Default : Yes
Forced : No

Menu
00:00:00.000 : en:00:00:00.000
00:04:04.494 : en:00:04:04.494
00:13:40.987 : en:00:13:40.987
00:20:39.447 : en:00:20:39.447
00:27:44.162 : en:00:27:44.162
00:33:52.864 : en:00:33:52.864
00:39:54.851 : en:00:39:54.851
00:45:35.942 : en:00:45:35.942
00:50:29.485 : en:00:50:29.485
00:55:57.354 : en:00:55:57.354
01:01:27.142 : en:01:01:27.142
01:07:11.402 : en:01:07:11.402

Subtitulos

Trailer