Calificar
CALIFICA
Calificar
Califica y/o escribe un comentario sobre la película.
Comentarios en el foroFORO

Batman: The Long Halloween, Part Two (2021)

El asesino conocido como Festivo sigue acosando a la familia criminal Falcone mientras una nueva clase de criminales nace en Gotham. Batman sospecha que el asesino podría ser un antiguo aliado.
➜ Batman: The Long Halloween, Part One (2021)
Director Chris Palmer
Actores Jensen Ackles, Troy Baker, Laila Berzins
País United States
Streaming (Servicio externo)
Grupo: PiGNUS
Versión: BDRip x264
Tamaño: 300 MB
Name: Batman.The.Long.Halloween.Part.Two.2021.BDRip.x264-PiGNUS
Release date: 10-08-2021

Resolution: 720x404
Audio: English 119 kbps VBR AAC LC
Video: 362 kbps, CRF 19

Subtitulos

Grupo: PiGNUS
Versión: BDRip x264 720p
Tamaño: 1.7 GB
Name: Batman.The.Long.Halloween.Part.Two.2021.720p.BluRay.x264-PiGNUS
Release date: 10-08-2021

Resolution: 1280x720
Audio: English AC3 6ch 640 kbps
Video: 2090 kbps, CRF 14.5
Source: 14991 kbps

Subtitulos

Grupo: NoGRP
Versión: WEBRip x264 1080p
Tamaño: 3.2 GB
Video
ID : 1
Format : AVC
Format/Info : Advanced Video Codec
Format profile : [email protected]
Format settings : CABAC / 2 Ref Frames
Format settings, CABAC : Yes
Format settings, Reference frames : 2 frames
Codec ID : V_MPEG4/ISO/AVC
Duration : 1 h 27 min
Bit rate : 4 810 kb/s
Width : 1 920 pixels
Height : 1 080 pixels
Display aspect ratio : 16:9
Frame rate mode : Constant
Frame rate : 23.976 (24000/1001) FPS
Color space : YUV
Chroma subsampling : 4:2:0
Bit depth : 8 bits
Scan type : Progressive
Bits/(Pixel*Frame) : 0.097
Stream size : 2.93 GiB (93%)
Writing library : x264 core 155 r2901 7d0ff22
Language : English
Default : Yes
Forced : No
Color range : Limited
Color primaries : BT.709
Transfer characteristics : BT.709
Matrix coefficients : BT.709

Audio
ID : 2
Format : E-AC-3
Format/Info : Enhanced AC-3
Commercial name : Dolby Digital Plus
Codec ID : A_EAC3
Duration : 1 h 27 min
Bit rate mode : Constant
Bit rate : 384 kb/s
Channel(s) : 6 channels
Channel layout : L R C LFE Ls Rs
Sampling rate : 48.0 kHz
Frame rate : 31.250 FPS (1536 SPF)
Compression mode : Lossy
Stream size : 239 MiB (7%)
Language : English
Service kind : Complete Main
Default : Yes
Forced : No

Subtitulos

Grupo: PiGNUS
Versión: BDRip x264 1080p
Tamaño: 5.0 GB
Name: Batman.The.Long.Halloween.Part.Two.2021.1080p.BluRay.x264-PiGNUS
Release date: 10-08-2021

Resolution: 1920x1080
Audio: English DTS-HD Master 6ch 2934 kbps
Video: 10369 kbps, CRF 15.5
Source: 5289 kbps

Subtitulos

Grupo: NoGRP
Versión: WEBRip x265 2160p HDR
Tamaño: 9.0 GB
Video
ID : 1
Format : HEVC
Format/Info : High Efficiency Video Coding
Format profile : Main [email protected]@High
HDR format : SMPTE ST 2086, HDR10 compatible
Codec ID : V_MPEGH/ISO/HEVC
Duration : 1 h 27 min
Bit rate : 14.4 Mb/s
Width : 3 840 pixels
Height : 2 160 pixels
Display aspect ratio : 16:9
Frame rate mode : Constant
Frame rate : 23.976 FPS
Color space : YUV
Chroma subsampling : 4:2:0 (Type 2)
Bit depth : 10 bits
Bits/(Pixel*Frame) : 0.073
Stream size : 8.79 GiB (97%)
Language : English
Default : Yes
Forced : No
Color range : Limited
Color primaries : BT.2020
Transfer characteristics : PQ
Matrix coefficients : BT.2020 non-constant
Mastering display color primaries : BT.2020
Mastering display luminance : min: 0.0050 cd/m2, max: 4000 cd/m2
Maximum Content Light Level : 721 cd/m2
Maximum Frame-Average Light Level : 202 cd/m2

Audio
ID : 2
Format : AC-3
Format/Info : Audio Coding 3
Commercial name : Dolby Digital
Codec ID : A_AC3
Duration : 1 h 27 min
Bit rate mode : Constant
Bit rate : 384 kb/s
Channel(s) : 6 channels
Channel layout : L R C LFE Ls Rs
Sampling rate : 48.0 kHz
Frame rate : 31.250 FPS (1536 SPF)
Compression mode : Lossy
Stream size : 239 MiB (3%)
Title : English
Language : English
Service kind : Complete Main
Default : No
Forced : No

Subtitulos

Trailer