62
PUNTOS
Calificar
CALIFICA
Calificar
Califica y/o escribe un comentario sobre la película.
Comentarios en el foroFORO

Four Good Days (2020)

Diez a?os de consumo de opioides han dejado en ruinas la vida de la joven Molly. Una nueva medicina podría darle alas para comenzar de nuevo si es capaz de mantenerse limpia durante cuatro días, algo que trata de lograr con la ayuda de su madre Deb, una mujer de ideas férreas. El amor que ambas se profesan se verá puesto a prueba como nunca antes en sus vidas.
Director Rodrigo García
Actores Mila Kunis, Carla Gallo, Glenn Close, Stephen Root
Duración 100 min
Streaming (Servicio externo)
Grupo: MT
Versión: BDRip x264 720p
Tamaño: 2.8 GB
Video
ID : 1
Format : AVC
Format/Info : Advanced Video Codec
Format profile : [email protected]
Format settings : CABAC / 12 Ref Frames
Format settings, CABAC : Yes
Format settings, Reference frames : 12 frames
Codec ID : V_MPEG4/ISO/AVC
Duration : 1 h 40 min
Bit rate : 2 474 kb/s
Width : 1 280 pixels
Height : 536 pixels
Display aspect ratio : 2.40:1
Frame rate mode : Constant
Frame rate : 23.976 (24000/1001) FPS
Color space : YUV
Chroma subsampling : 4:2:0
Bit depth : 8 bits
Scan type : Progressive
Bits/(Pixel*Frame) : 0.150
Stream size : 1.74 GiB (62%)
Writing library : x264 core 157 r2938 2b00a84 [email protected] Mod
Encoding settings : cabac=1 / ref=12 / deblock=1:-3:-3 / analyse=0x3:0x133 / me=umh / subme=10 / psy=1 / psy_rd=1.05:0.00 / mixed_ref=1 / me_range=32 / chroma_me=1 / trellis=2 / 8x8dct=1 / cqm=0 / deadzone=21,11 / fast_pskip=0 / chroma_qp_offset=-2 / threads=12 / lookahead_threads=2 / sliced_threads=0 / nr=0 / decimate=0 / interlaced=0 / bluray_compat=0 / constrained_intra=0 / bframes=8 / b_pyramid=2 / b_adapt=2 / b_bias=0 / direct=3 / weightb=1 / open_gop=0 / weightp=2 / keyint=250 / keyint_min=24 / scenecut=40 / intra_refresh=0 / rc_lookahead=250 / rc=crf / mbtree=0 / crf=16.8 / qcomp=0.60 / qpmin=0 / qpmax=69 / qpstep=4 / vbv_maxrate=62500 / vbv_bufsize=78125 / crf_max=0.0 / nal_hrd=none / filler=0 / ip_ratio=1.30 / pb_ratio=1.20 / aq=3:0.80
Language : English
Default : Yes
Forced : No
Color range : Limited
Color primaries : BT.709
Matrix coefficients : BT.709

Audio
ID : 2
Format : DTS
Format/Info : Digital Theater Systems
Codec ID : A_DTS
Duration : 1 h 40 min
Bit rate mode : Constant
Bit rate : 1 509 kb/s
Channel(s) : 6 channels
Channel layout : C L R Ls Rs LFE
Sampling rate : 48.0 kHz
Frame rate : 93.750 FPS (512 SPF)
Bit depth : 24 bits
Compression mode : Lossy
Stream size : 1.06 GiB (38%)
Language : English
Default : Yes
Forced : No

Text
ID : 3
Format : UTF-8
Codec ID : S_TEXT/UTF8
Codec ID/Info : UTF-8 Plain Text
Duration : 1 h 32 min
Bit rate : 57 b/s
Count of elements : 1347
Stream size : 38.9 KiB (0%)
Title : SRT
Language : English
Default : Yes
Forced : No

Menu
00:00:00.000 : en:Chapter 01
00:08:47.736 : en:Chapter 02
00:15:50.741 : en:Chapter 03
00:26:19.411 : en:Chapter 04
00:34:56.511 : en:Chapter 05
00:47:41.525 : en:Chapter 06
00:58:27.671 : en:Chapter 07
01:05:08.404 : en:Chapter 08
01:12:58.583 : en:Chapter 09
01:22:45.335 : en:Chapter 10
01:30:22.834 : en:Chapter 11
01:36:32.078 : en:Chapter 12

Subtitulos

Grupo: MT
Versión: BDRip x264 1080p
Tamaño: 6.0 GB
Video
ID : 1
Format : AVC
Format/Info : Advanced Video Codec
Format profile : [email protected]
Format settings : CABAC / 5 Ref Frames
Format settings, CABAC : Yes
Format settings, Reference frames : 5 frames
Codec ID : V_MPEG4/ISO/AVC
Duration : 1 h 40 min
Bit rate : 6 989 kb/s
Width : 1 920 pixels
Height : 804 pixels
Display aspect ratio : 2.40:1
Frame rate mode : Constant
Frame rate : 23.976 (24000/1001) FPS
Color space : YUV
Chroma subsampling : 4:2:0
Bit depth : 8 bits
Scan type : Progressive
Bits/(Pixel*Frame) : 0.189
Stream size : 4.91 GiB (82%)
Writing library : x264 core 157 r2938 2b00a84 [email protected] Mod
Encoding settings : cabac=1 / ref=5 / deblock=1:-3:-3 / analyse=0x3:0x133 / me=umh / subme=10 / psy=1 / psy_rd=1.05:0.00 / mixed_ref=1 / me_range=32 / chroma_me=1 / trellis=2 / 8x8dct=1 / cqm=0 / deadzone=21,11 / fast_pskip=0 / chroma_qp_offset=-2 / threads=12 / lookahead_threads=2 / sliced_threads=0 / nr=0 / decimate=0 / interlaced=0 / bluray_compat=0 / constrained_intra=0 / bframes=8 / b_pyramid=2 / b_adapt=2 / b_bias=0 / direct=3 / weightb=1 / open_gop=0 / weightp=2 / keyint=250 / keyint_min=24 / scenecut=40 / intra_refresh=0 / rc_lookahead=250 / rc=crf / mbtree=0 / crf=16.8 / qcomp=0.60 / qpmin=0 / qpmax=69 / qpstep=4 / vbv_maxrate=62500 / vbv_bufsize=78125 / crf_max=0.0 / nal_hrd=none / filler=0 / ip_ratio=1.30 / pb_ratio=1.20 / aq=3:0.80
Language : English
Default : Yes
Forced : No
Color range : Limited
Color primaries : BT.709
Matrix coefficients : BT.709

Audio
ID : 2
Format : DTS
Format/Info : Digital Theater Systems
Codec ID : A_DTS
Duration : 1 h 40 min
Bit rate mode : Constant
Bit rate : 1 509 kb/s
Channel(s) : 6 channels
Channel layout : C L R Ls Rs LFE
Sampling rate : 48.0 kHz
Frame rate : 93.750 FPS (512 SPF)
Bit depth : 24 bits
Compression mode : Lossy
Stream size : 1.06 GiB (18%)
Language : English
Default : Yes
Forced : No

Text
ID : 3
Format : UTF-8
Codec ID : S_TEXT/UTF8
Codec ID/Info : UTF-8 Plain Text
Duration : 1 h 32 min
Bit rate : 57 b/s
Count of elements : 1347
Stream size : 38.9 KiB (0%)
Title : SRT
Language : English
Default : Yes
Forced : No

Menu
00:00:00.000 : en:Chapter 01
00:08:47.736 : en:Chapter 02
00:15:50.741 : en:Chapter 03
00:26:19.411 : en:Chapter 04
00:34:56.511 : en:Chapter 05
00:47:41.525 : en:Chapter 06
00:58:27.671 : en:Chapter 07
01:05:08.404 : en:Chapter 08
01:12:58.583 : en:Chapter 09
01:22:45.335 : en:Chapter 10
01:30:22.834 : en:Chapter 11
01:36:32.078 : en:Chapter 12

Subtitulos

Grupo: RUMOUR
Versión: WEB H264 1080p
Tamaño: 4.1 GB
Four.Good.Days.2020.1080p.WEB.h264-RUMOUR

date......: 22/05/2021
size......: 4.12 GiB
runtime...: 1 h 40 min
resolution: 1920x1080
bitrate...: 5 228 kb/s
audio.....: (English) E-AC-3 6ch 640 kb/s
subs......: English
url.......: https://www.imdb.com/title/tt10344522
Grupo: RUMOUR
Versión: WEB H264 720p
Tamaño: 2.1 GB
Four.Good.Days.2020.720p.WEB.h264-RUMOUR

date......: 22/05/2021
size......: 2.10 GiB
runtime...: 1 h 40 min
resolution: 1280x720
bitrate...: 2 355 kb/s
audio.....: (English) E-AC-3 6ch 640 kb/s
subs......: English
url.......: https://www.imdb.com/title/tt10344522
Trailer