81
PUNTOS
Calificar
CALIFICA
Calificar
Califica y/o escribe un comentario sobre la película.
Comentarios en el foroFORO

Small Town Wisconsin (2020)

Wayne, un padre divorciado y alcohólico, anclado a una juventud que ya hace tiempo que pasó, pierde la custodia de su hijo. Convencido que puede revertir la situación, se lleva a su hijo de camping con la aprobación de su ex mujer. Lo que ella no sabe es que en realidad se lo lleva a Milwaukee, donde en vez de exponer la situación a su hijo, le quiere impresionar con un montón de lujos.
Director Niels Mueller
Actores David Sullivan, Bill Heck, Kristen Johnston, Cooper J. Friedman
Duración 109 min
Streaming (Servicio externo)
Grupo: gooz
Versión: WEB x264 720p
Tamaño: 1.7 GB
General
Unique ID                                : 165347541199899671347454653866971890542 (0x7C64C7306EADFDA116C16A2AE18A036E)
Complete name                            : Small.Town.Wisconsin.2020.720p.WEB.x264-gooz.mkv
Format                                   : Matroska
Format version                           : Version 4
File size                                : 1.66 GiB
Duration                                 : 1 h 49 min
Overall bit rate                         : 2 166 kb/s
Encoded date                             : UTC 2021-05-03 01:07:53
Writing application                      : mkvmerge v49.0.0 ('Sick Of Losing Soulmates') 64-bit
Writing library                          : libebml v1.4.0 + libmatroska v1.6.1
Comment                                  : Ripped by gooz

Video
ID                                       : 1
Format                                   : AVC
Format/Info                              : Advanced Video Codec
Format profile                           : [email protected]
Format settings                          : CABAC / 5 Ref Frames
Format settings, CABAC                   : Yes
Format settings, Reference frames        : 5 frames
Codec ID                                 : V_MPEG4/ISO/AVC
Duration                                 : 1 h 49 min
Bit rate                                 : 1 911 kb/s
Width                                    : 1 280 pixels
Height                                   : 720 pixels
Display aspect ratio                     : 16:9
Frame rate mode                          : Constant
Frame rate                               : 23.976 (24000/1001) FPS
Color space                              : YUV
Chroma subsampling                       : 4:2:0
Bit depth                                : 8 bits
Scan type                                : Progressive
Bits/(Pixel*Frame)                       : 0.086
Stream size                              : 1.47 GiB (88%)
Default                                  : Yes
Forced                                   : No
Color range                              : Limited
Color primaries                          : BT.709
Transfer characteristics                 : BT.709
Matrix coefficients                      : BT.709

Audio
ID                                       : 2
Format                                   : AAC LC
Format/Info                              : Advanced Audio Codec Low Complexity
Codec ID                                 : A_AAC-2
Duration                                 : 1 h 49 min
Bit rate                                 : 253 kb/s
Channel(s)                               : 2 channels
Channel layout                           : L R
Sampling rate                            : 48.0 kHz
Frame rate                               : 46.875 FPS (1024 SPF)
Compression mode                         : Lossy
Delay relative to video                  : 1 ms
Stream size                              : 199 MiB (12%)
Language                                 : English
Default                                  : Yes
Forced                                   : No

Text
ID                                       : 3
Format                                   : UTF-8
Codec ID                                 : S_TEXT/UTF8
Codec ID/Info                            : UTF-8 Plain Text
Duration                                 : 1 h 48 min
Bit rate                                 : 75 b/s
Count of elements                        : 2184
Stream size                              : 59.7 KiB (0%)
Language                                 : Portuguese
Default                                  : Yes
Forced                                   : No
Trailer