69
PUNTOS
Calificar
CALIFICA
Calificar
Califica y/o escribe un comentario sobre la película.
Comentarios en el foroFORO

Sibel (2018)

Sibel es una joven de 25 a?os que perdió el habla durante su ni?ez y que se comunica son silbidos. Para evitar la sensación de soledad trabaja duramente en el campo, donde vive alejada de la sociedad con su padre. Un día, mientras camina por el bosque, encuentra a un soldado del ejército turco que le recuerda poco a poco lo que significa ser tratada como una mujer.
Director Guillaume Giovanetti, ?agla Zencirci
Actores Damla Sönmez, Erkan Kol?ak Köstendil, Emin Gürsoy, Elit Iscan
Duración 95 min
Streaming (Servicio externo)
Grupo: NOMA
Versión: WEB H264 1080p
Tamaño: 4.8 GB
Video
ID : 1
Format : AVC
Format/Info : Advanced Video Codec
Format profile : [email protected]
Format settings : CABAC / 4 Ref Frames
Format settings, CABAC : Yes
Format settings, Reference frames : 4 frames
Codec ID : V_MPEG4/ISO/AVC
Duration : 1 h 35 min
Bit rate mode : Constant
Bit rate : 7 127 kb/s
Nominal bit rate : 10 000 kb/s
Width : 1 920 pixels
Height : 800 pixels
Display aspect ratio : 2.40:1
Frame rate mode : Constant
Frame rate : 24.000 FPS
Color space : YUV
Chroma subsampling : 4:2:0
Bit depth : 8 bits
Scan type : Progressive
Bits/(Pixel*Frame) : 0.193
Stream size : 4.73 GiB (98%)
Language : Turkish
Default : Yes
Forced : No
Color range : Limited
Color primaries : BT.709
Transfer characteristics : BT.709
Matrix coefficients : BT.709

Audio
ID : 2
Format : AAC LC
Format/Info : Advanced Audio Codec Low Complexity
Codec ID : A_AAC-2
Duration : 1 h 35 min
Bit rate : 128 kb/s
Channel(s) : 2 channels
Channel layout : L R
Sampling rate : 48.0 kHz
Frame rate : 46.875 FPS (1024 SPF)
Compression mode : Lossy
Stream size : 87.0 MiB (2%)
Language : Turkish
Default : Yes
Forced : No

Text
ID : 3
Format : UTF-8
Codec ID : S_TEXT/UTF8
Codec ID/Info : UTF-8 Plain Text
Duration : 1 h 29 min
Bit rate : 20 b/s
Count of elements : 468
Stream size : 13.1 KiB (0%)
Title : English (forced)
Language : English
Default : Yes
Forced : Yes
Trailer