74
PUNTOS
Calificar
CALIFICA
Calificar
Califica y/o escribe un comentario sobre la película.
Comentarios en el foroFORO

Nobody (2021)

Hutch Mansell (Bob Odenkirk) es un hombre de familia corriente. Una noche unos ladrones entran a su casa y él renuncia a defenderse y defender a su familia con el fin de evitar complicaciones. Esto decepciona a su hijo Blake (Gage Munroe) y a su mujer Becca (Connie Nielsen) que empiezan a distanciarse de él. El incidente le reconcome por dentro y hace que salga a la luz su lado más oscuro.
Director Ilya Naishuller
Actores Bob Odenkirk, Aleksey Serebryakov, Connie Nielsen
Duración 92 min
País United States, Japan
Streaming (Servicio externo)
Grupo: FGT
Versión: BDRip x264 720p
Tamaño: 4.5 GB
Video
ID : 1
Format : AVC
Format/Info : Advanced Video Codec
Format profile : [email protected]
Format settings : CABAC / 4 Ref Frames
Format settings, CABAC : Yes
Format settings, Reference frames : 4 frames
Codec ID : V_MPEG4/ISO/AVC
Duration : 1 h 31 min
Bit rate : 5 500 kb/s
Width : 1 280 pixels
Height : 536 pixels
Display aspect ratio : 2.40:1
Frame rate mode : Constant
Frame rate : 23.976 (24000/1001) FPS
Color space : YUV
Chroma subsampling : 4:2:0
Bit depth : 8 bits
Scan type : Progressive
Bits/(Pixel*Frame) : 0.334
Stream size : 3.52 GiB (78%)
Writing library : x264 core 148 r2795M aaa9aa8
Encoding settings : cabac=1 / ref=4 / deblock=1:-2:-2 / analyse=0x3:0x113 / me=umh / subme=9 / psy=1 / psy_rd=1.00:0.15 / mixed_ref=1 / me_range=16 / chroma_me=1 / trellis=2 / 8x8dct=1 / cqm=0 / deadzone=21,11 / fast_pskip=1 / chroma_qp_offset=-3 / threads=72 / lookahead_threads=3 / sliced_threads=0 / nr=0 / decimate=1 / interlaced=0 / bluray_compat=0 / constrained_intra=0 / bframes=3 / b_pyramid=2 / b_adapt=1 / b_bias=0 / direct=3 / weightb=1 / open_gop=0 / weightp=2 / keyint=250 / keyint_min=25 / scenecut=40 / intra_refresh=0 / rc_lookahead=50 / rc=2pass / mbtree=1 / bitrate=5500 / ratetol=1.0 / qcomp=0.60 / qpmin=0 / qpmax=69 / qpstep=4 / cplxblur=20.0 / qblur=0.5 / vbv_maxrate=31250 / vbv_bufsize=31250 / nal_hrd=none / filler=0 / ip_ratio=1.40 / aq=1:1.00
Language : English
Default : Yes
Forced : No

Audio
ID : 2
Format : DTS
Format/Info : Digital Theater Systems
Codec ID : A_DTS
Duration : 1 h 31 min
Bit rate mode : Constant
Bit rate : 1 509 kb/s
Channel(s) : 6 channels
Channel layout : C L R Ls Rs LFE
Sampling rate : 48.0 kHz
Frame rate : 93.750 FPS (512 SPF)
Bit depth : 24 bits
Compression mode : Lossy
Stream size : 990 MiB (22%)
Language : English
Default : Yes
Forced : No

Text
ID : 3
Format : UTF-8
Codec ID : S_TEXT/UTF8
Codec ID/Info : UTF-8 Plain Text
Duration : 1 h 28 min
Bit rate : 37 b/s
Count of elements : 958
Stream size : 24.2 KiB (0%)
Title : SRT
Language : English
Default : Yes
Forced : No

Menu
00:00:00.000 : Just a Nobody
00:02:04.249 : Suburban Life
00:09:01.540 : Paternal Inadequacy
00:15:02.693 : Covert Counseling
00:19:18.198 : Seeking Revenge
00:24:56.286 : One Door Opens
00:32:15.933 : Reminiscing the Past
00:35:37.468 : Yulian
00:40:01.065 : Enraged Sibling
00:43:43.203 : Visiting the Barber
00:47:29.221 : Vengeful Intrusion
00:50:56.636 : Trunk Awakening
00:54:46.783 : Trust Me
00:57:32.073 : Living Room Confession
01:04:16.686 : New Management
01:06:54.844 : Storming Obshak
01:08:59.802 : Came for the Show
01:13:20.646 : Chasing Revenge
01:15:26.355 : Last Stand
01:21:05.569 : Everybody Dies
01:24:06.499 : Not Much of an Answer
01:26:16.963 : End Credits

Subtitulos

Grupo: FGT
Versión: BDRip x264 1080p
Tamaño: 8.3 GB
Video
ID : 1
Format : AVC
Format/Info : Advanced Video Codec
Format profile : [email protected]
Format settings : CABAC / 4 Ref Frames
Format settings, CABAC : Yes
Format settings, Reference frames : 4 frames
Codec ID : V_MPEG4/ISO/AVC
Duration : 1 h 31 min
Bit rate : 11.5 Mb/s
Width : 1 920 pixels
Height : 804 pixels
Display aspect ratio : 2.40:1
Frame rate mode : Constant
Frame rate : 23.976 (24000/1001) FPS
Color space : YUV
Chroma subsampling : 4:2:0
Bit depth : 8 bits
Scan type : Progressive
Bits/(Pixel*Frame) : 0.311
Stream size : 7.36 GiB (88%)
Writing library : x264 core 148 r2748 97eaef2
Encoding settings : cabac=1 / ref=4 / deblock=1:-2:-2 / analyse=0x3:0x113 / me=umh / subme=9 / psy=1 / psy_rd=1.00:0.15 / mixed_ref=1 / me_range=16 / chroma_me=1 / trellis=2 / 8x8dct=1 / cqm=0 / deadzone=21,11 / fast_pskip=1 / chroma_qp_offset=-3 / threads=72 / lookahead_threads=3 / sliced_threads=0 / nr=0 / decimate=1 / interlaced=0 / bluray_compat=0 / constrained_intra=0 / bframes=3 / b_pyramid=2 / b_adapt=1 / b_bias=0 / direct=3 / weightb=1 / open_gop=0 / weightp=2 / keyint=250 / keyint_min=25 / scenecut=40 / intra_refresh=0 / rc_lookahead=50 / rc=2pass / mbtree=1 / bitrate=11500 / ratetol=1.0 / qcomp=0.60 / qpmin=0 / qpmax=69 / qpstep=4 / cplxblur=20.0 / qblur=0.5 / vbv_maxrate=31250 / vbv_bufsize=31250 / nal_hrd=none / filler=0 / ip_ratio=1.40 / aq=1:1.00
Language : English
Default : Yes
Forced : No

Audio
ID : 2
Format : DTS
Format/Info : Digital Theater Systems
Codec ID : A_DTS
Duration : 1 h 31 min
Bit rate mode : Constant
Bit rate : 1 509 kb/s
Channel(s) : 6 channels
Channel layout : C L R Ls Rs LFE
Sampling rate : 48.0 kHz
Frame rate : 93.750 FPS (512 SPF)
Bit depth : 24 bits
Compression mode : Lossy
Stream size : 990 MiB (12%)
Language : English
Default : Yes
Forced : No

Text
ID : 3
Format : UTF-8
Codec ID : S_TEXT/UTF8
Codec ID/Info : UTF-8 Plain Text
Duration : 1 h 28 min
Bit rate : 37 b/s
Count of elements : 958
Stream size : 24.2 KiB (0%)
Title : SRT
Language : English
Default : Yes
Forced : No

Menu
00:00:00.000 : Just a Nobody
00:02:04.249 : Suburban Life
00:09:01.540 : Paternal Inadequacy
00:15:02.693 : Covert Counseling
00:19:18.198 : Seeking Revenge
00:24:56.286 : One Door Opens
00:32:15.933 : Reminiscing the Past
00:35:37.468 : Yulian
00:40:01.065 : Enraged Sibling
00:43:43.203 : Visiting the Barber
00:47:29.221 : Vengeful Intrusion
00:50:56.636 : Trunk Awakening
00:54:46.783 : Trust Me
00:57:32.073 : Living Room Confession
01:04:16.686 : New Management
01:06:54.844 : Storming Obshak
01:08:59.802 : Came for the Show
01:13:20.646 : Chasing Revenge
01:15:26.355 : Last Stand
01:21:05.569 : Everybody Dies
01:24:06.499 : Not Much of an Answer
01:26:16.963 : End Credits

Subtitulos

Grupo: MT
Versión: BDRip x264 720p
Tamaño: 7.9 GB
Video
ID : 1
Format : AVC
Format/Info : Advanced Video Codec
Format profile : [email protected]
Format settings : CABAC / 12 Ref Frames
Format settings, CABAC : Yes
Format settings, Reference frames : 12 frames
Codec ID : V_MPEG4/ISO/AVC
Duration : 1 h 31 min
Bit rate : 10.8 Mb/s
Width : 1 280 pixels
Height : 536 pixels
Display aspect ratio : 2.40:1
Frame rate mode : Constant
Frame rate : 23.976 (24000/1001) FPS
Color space : YUV
Chroma subsampling : 4:2:0
Bit depth : 8 bits
Scan type : Progressive
Bits/(Pixel*Frame) : 0.658
Stream size : 6.94 GiB (88%)
Writing library : x264 core 157 r2938 2b00a84 [email protected] Mod
Encoding settings : cabac=1 / ref=12 / deblock=1:-3:-3 / analyse=0x3:0x133 / me=umh / subme=10 / psy=1 / psy_rd=1.05:0.00 / mixed_ref=1 / me_range=32 / chroma_me=1 / trellis=2 / 8x8dct=1 / cqm=0 / deadzone=21,11 / fast_pskip=0 / chroma_qp_offset=-2 / threads=12 / lookahead_threads=2 / sliced_threads=0 / nr=0 / decimate=0 / interlaced=0 / bluray_compat=0 / constrained_intra=0 / bframes=8 / b_pyramid=2 / b_adapt=2 / b_bias=0 / direct=3 / weightb=1 / open_gop=0 / weightp=2 / keyint=250 / keyint_min=24 / scenecut=40 / intra_refresh=0 / rc_lookahead=250 / rc=crf / mbtree=0 / crf=16.8 / qcomp=0.60 / qpmin=0 / qpmax=69 / qpstep=4 / vbv_maxrate=62500 / vbv_bufsize=78125 / crf_max=0.0 / nal_hrd=none / filler=0 / ip_ratio=1.30 / pb_ratio=1.20 / aq=3:0.80
Language : English
Default : Yes
Forced : No
Color range : Limited
Color primaries : BT.709
Matrix coefficients : BT.709

Audio
ID : 2
Format : DTS
Format/Info : Digital Theater Systems
Codec ID : A_DTS
Duration : 1 h 31 min
Bit rate mode : Constant
Bit rate : 1 509 kb/s
Channel(s) : 6 channels
Channel layout : C L R Ls Rs LFE
Sampling rate : 48.0 kHz
Frame rate : 93.750 FPS (512 SPF)
Bit depth : 24 bits
Compression mode : Lossy
Stream size : 990 MiB (12%)
Language : English
Default : Yes
Forced : No

Text
ID : 3
Format : UTF-8
Codec ID : S_TEXT/UTF8
Codec ID/Info : UTF-8 Plain Text
Duration : 1 h 28 min
Bit rate : 37 b/s
Count of elements : 958
Stream size : 24.2 KiB (0%)
Title : SRT
Language : English
Default : Yes
Forced : No

Menu
00:00:00.000 : Chapter 01
00:09:01.916 : Chapter 02
00:15:02.693 : Chapter 03
00:19:18.199 : Chapter 04
00:24:56.286 : Chapter 05
00:35:37.469 : Chapter 06
00:40:01.065 : Chapter 07
00:43:43.204 : Chapter 08
00:47:29.221 : Chapter 09
00:50:56.136 : Chapter 10
00:54:46.783 : Chapter 11
00:57:32.074 : Chapter 12
01:04:16.686 : Chapter 13
01:06:54.844 : Chapter 14
01:08:59.802 : Chapter 15
01:13:20.646 : Chapter 16
01:15:26.355 : Chapter 17
01:21:05.569 : Chapter 18
01:24:06.500 : Chapter 19
01:26:16.963 : Chapter 20

Subtitulos

Grupo: MT
Versión: BDRip x264 1080p
Tamaño: 23.6 GB
Video
ID : 1
Format : AVC
Format/Info : Advanced Video Codec
Format profile : [email protected]
Format settings : CABAC / 5 Ref Frames
Format settings, CABAC : Yes
Format settings, Reference frames : 5 frames
Codec ID : V_MPEG4/ISO/AVC
Duration : 1 h 31 min
Bit rate : 35.4 Mb/s
Width : 1 920 pixels
Height : 804 pixels
Display aspect ratio : 2.40:1
Frame rate mode : Constant
Frame rate : 23.976 (24000/1001) FPS
Color space : YUV
Chroma subsampling : 4:2:0
Bit depth : 8 bits
Scan type : Progressive
Bits/(Pixel*Frame) : 0.956
Stream size : 22.7 GiB (96%)
Writing library : x264 core 157 r2938 2b00a84 [email protected] Mod
Encoding settings : cabac=1 / ref=5 / deblock=1:-3:-3 / analyse=0x3:0x133 / me=umh / subme=10 / psy=1 / psy_rd=1.05:0.00 / mixed_ref=1 / me_range=32 / chroma_me=1 / trellis=2 / 8x8dct=1 / cqm=0 / deadzone=21,11 / fast_pskip=0 / chroma_qp_offset=-2 / threads=12 / lookahead_threads=2 / sliced_threads=0 / nr=0 / decimate=0 / interlaced=0 / bluray_compat=0 / constrained_intra=0 / bframes=8 / b_pyramid=2 / b_adapt=2 / b_bias=0 / direct=3 / weightb=1 / open_gop=0 / weightp=2 / keyint=250 / keyint_min=24 / scenecut=40 / intra_refresh=0 / rc_lookahead=250 / rc=crf / mbtree=0 / crf=16.8 / qcomp=0.60 / qpmin=0 / qpmax=69 / qpstep=4 / vbv_maxrate=62500 / vbv_bufsize=78125 / crf_max=0.0 / nal_hrd=none / filler=0 / ip_ratio=1.30 / pb_ratio=1.20 / aq=3:0.80
Language : English
Default : Yes
Forced : No
Color range : Limited
Color primaries : BT.709
Matrix coefficients : BT.709

Audio
ID : 2
Format : DTS
Format/Info : Digital Theater Systems
Codec ID : A_DTS
Duration : 1 h 31 min
Bit rate mode : Constant
Bit rate : 1 509 kb/s
Channel(s) : 6 channels
Channel layout : C L R Ls Rs LFE
Sampling rate : 48.0 kHz
Frame rate : 93.750 FPS (512 SPF)
Bit depth : 24 bits
Compression mode : Lossy
Stream size : 990 MiB (4%)
Language : English
Default : Yes
Forced : No

Text
ID : 3
Format : UTF-8
Codec ID : S_TEXT/UTF8
Codec ID/Info : UTF-8 Plain Text
Duration : 1 h 28 min
Bit rate : 37 b/s
Count of elements : 958
Stream size : 24.2 KiB (0%)
Title : SRT
Language : English
Default : Yes
Forced : No

Menu
00:00:00.000 : Chapter 01
00:09:01.916 : Chapter 02
00:15:02.693 : Chapter 03
00:19:18.199 : Chapter 04
00:24:56.286 : Chapter 05
00:35:37.469 : Chapter 06
00:40:01.065 : Chapter 07
00:43:43.204 : Chapter 08
00:47:29.221 : Chapter 09
00:50:56.136 : Chapter 10
00:54:46.783 : Chapter 11
00:57:32.074 : Chapter 12
01:04:16.686 : Chapter 13
01:06:54.844 : Chapter 14
01:08:59.802 : Chapter 15
01:13:20.646 : Chapter 16
01:15:26.355 : Chapter 17
01:21:05.569 : Chapter 18
01:24:06.500 : Chapter 19
01:26:16.963 : Chapter 20

Subtitulos

Grupo: RUMOUR
Versión: WEB H264 720p
Tamaño: 1.7 GB
Nobody.2021.720p.WEB.h264-RUMOUR

date......: 15/04/2021
size......: 1.74 GiB
runtime...: 1 h 31 min
resolution: 1280x528
bitrate...: 2 082 kb/s
audio.....: (English) E-AC-3 6ch 640 kb/s
subs......: English
url.......: https://www.imdb.com/title/tt7888964

Subtitulos

Grupo: RUMOUR
Versión: WEB H264 1080p
Tamaño: 8.2 GB
Nobody.2021.1080p.WEB.h264-RUMOUR

date......: 15/04/2021
size......: 8.19 GiB
runtime...: 1 h 31 min
resolution: 1920x800
bitrate...: 12.1 Mb/s
audio.....: (English) E-AC-3 6ch 640 kb/s
subs......: English
url.......: https://www.imdb.com/title/tt7888964

Subtitulos

Trailer