65
PUNTOS
Calificar
CALIFICA
Calificar
Califica y/o escribe un comentario sobre la película.
Comentarios en el foroFORO

Ammonite (2020)

Narra la historia de amor en la Inglaterra de 1840 entre la paleontóloga Mary Anning y Charlotte Murchinson, una mujer casada. En la conservadora sociedad británica del siglo XIX, la aclamada pero desconocida buscadora de fósiles Mary Anning trabaja sola en el sur del país. Cuando toda su fama ya ha pasado, se dedica a vender fósiles a los turistas para salir adelante, hasta que un visitante rico quiere que Mary cuide a su mujer. La relación entre ambas se irá desarrollando y tomará un camino inesperado.
Director Francis Lee
Actores Kate Winslet, Saoirse Ronan, Gemma Jones, James McArdle
Duración 120 min
Streaming (Servicio externo)
Grupo: USURY
Versión: BDRip x264 720p
Tamaño: 2.6 GB
Video...: 1280x692 2562kb/s @ crf16.0 23.976fps
Audio...: English 640kb/s 6ch AC-3
SRT Subs: English regular/SDH
PGS Subs: English SDH
Size....: 2705.21mb (2836621743bytes)
Runtime.: 1h 57mn
IMDb....: https://www.imdb.com/title/tt7983894

Source Bitrate: 18147kb/s

Subtitulos

Grupo: USURY
Versión: BDRip x264 1080p
Tamaño: 8.2 GB
Video...: 1920x1038 6522kb/s @ crf16.0 23.976fps
Audio...: English 3483kb/s 6ch DTS-HD MA
SRT Subs: English regular/SDH
PGS Subs: English SDH
Size....: 8441.83mb (8851907171bytes)
Runtime.: 1h 57mn
IMDb....: https://www.imdb.com/title/tt7983894

Source Bitrate: 18147kb/s

Subtitulos

Grupo: BiPOLAR
Versión: BDRip x264
Tamaño: 532 MB
Ammonite.2020.BDRip.x264-BiPOLAR

Video...: 720x388 483kb/s @ crf19 23.976fps
Audio...: English 137kb/s 2ch AAC
Subs....: English regular/SDH (muxed .srt)
Size....: 532.07mb (557917263bytes)
Runtime.: 1h 57mn
IMDb....: https://www.imdb.com/title/tt7983894

Subtitulos

Grupo: MT
Versión: BDRip x264 720p
Tamaño: 4.6 GB
Video
ID : 1
Format : AVC
Format/Info : Advanced Video Codec
Format profile : [email protected]
Format settings : CABAC / 9 Ref Frames
Format settings, CABAC : Yes
Format settings, Reference frames : 9 frames
Codec ID : V_MPEG4/ISO/AVC
Duration : 1 h 57 min
Bit rate : 4 028 kb/s
Width : 1 280 pixels
Height : 692 pixels
Display aspect ratio : 1.85:1
Frame rate mode : Constant
Frame rate : 23.976 (24000/1001) FPS
Color space : YUV
Chroma subsampling : 4:2:0
Bit depth : 8 bits
Scan type : Progressive
Bits/(Pixel*Frame) : 0.190
Stream size : 3.32 GiB (73%)
Writing library : x264 core 157 r2938 2b00a84 [email protected] Mod
Encoding settings : cabac=1 / ref=9 / deblock=1:-3:-3 / analyse=0x3:0x133 / me=umh / subme=10 / psy=1 / psy_rd=1.05:0.00 / mixed_ref=1 / me_range=32 / chroma_me=1 / trellis=2 / 8x8dct=1 / cqm=0 / deadzone=21,11 / fast_pskip=0 / chroma_qp_offset=-2 / threads=12 / lookahead_threads=2 / sliced_threads=0 / nr=0 / decimate=0 / interlaced=0 / bluray_compat=0 / constrained_intra=0 / bframes=8 / b_pyramid=2 / b_adapt=2 / b_bias=0 / direct=3 / weightb=1 / open_gop=0 / weightp=2 / keyint=250 / keyint_min=24 / scenecut=40 / intra_refresh=0 / rc_lookahead=250 / rc=crf / mbtree=0 / crf=16.8 / qcomp=0.60 / qpmin=0 / qpmax=69 / qpstep=4 / vbv_maxrate=62500 / vbv_bufsize=78125 / crf_max=0.0 / nal_hrd=none / filler=0 / ip_ratio=1.30 / pb_ratio=1.20 / aq=3:0.80
Language : English
Default : Yes
Forced : No
Color range : Limited
Color primaries : BT.709
Matrix coefficients : BT.709

Audio
ID : 2
Format : DTS
Format/Info : Digital Theater Systems
Codec ID : A_DTS
Duration : 1 h 57 min
Bit rate mode : Constant
Bit rate : 1 509 kb/s
Channel(s) : 6 channels
Channel layout : C L R Ls Rs LFE
Sampling rate : 48.0 kHz
Frame rate : 93.750 FPS (512 SPF)
Bit depth : 24 bits
Compression mode : Lossy
Stream size : 1.24 GiB (27%)
Language : English
Default : Yes
Forced : No

Text
ID : 3
Format : UTF-8
Codec ID : S_TEXT/UTF8
Codec ID/Info : UTF-8 Plain Text
Duration : 1 h 47 min
Bit rate : 20 b/s
Count of elements : 516
Stream size : 15.8 KiB (0%)
Title : SRT
Language : English
Default : Yes
Forced : No

Menu
00:00:00.000 : en:Chapter 01
00:10:00.266 : en:Chapter 02
00:20:00.199 : en:Chapter 03
00:30:01.508 : en:Chapter 04
00:40:02.483 : en:Chapter 05
00:50:03.459 : en:Chapter 06
01:00:04.017 : en:Chapter 07
01:10:05.701 : en:Chapter 08
01:20:05.384 : en:Chapter 09
01:30:09.112 : en:Chapter 10
01:40:05.208 : en:Chapter 11
01:50:06.767 : en:Chapter 12
01:52:34.873 : en:Chapter 13
Grupo: MT
Versión: BDRip x264 1080p
Tamaño: 10.4 GB
Video
ID : 1
Format : AVC
Format/Info : Advanced Video Codec
Format profile : [email protected]
Format settings : CABAC / 4 Ref Frames
Format settings, CABAC : Yes
Format settings, Reference frames : 4 frames
Codec ID : V_MPEG4/ISO/AVC
Duration : 1 h 57 min
Bit rate : 11.1 Mb/s
Width : 1 920 pixels
Height : 1 038 pixels
Display aspect ratio : 1.85:1
Frame rate mode : Constant
Frame rate : 23.976 (24000/1001) FPS
Color space : YUV
Chroma subsampling : 4:2:0
Bit depth : 8 bits
Scan type : Progressive
Bits/(Pixel*Frame) : 0.233
Stream size : 9.17 GiB (88%)
Writing library : x264 core 157 r2938 2b00a84 [email protected] Mod
Encoding settings : cabac=1 / ref=4 / deblock=1:-3:-3 / analyse=0x3:0x133 / me=umh / subme=10 / psy=1 / psy_rd=1.05:0.00 / mixed_ref=1 / me_range=32 / chroma_me=1 / trellis=2 / 8x8dct=1 / cqm=0 / deadzone=21,11 / fast_pskip=0 / chroma_qp_offset=-2 / threads=12 / lookahead_threads=2 / sliced_threads=0 / nr=0 / decimate=0 / interlaced=0 / bluray_compat=0 / constrained_intra=0 / bframes=8 / b_pyramid=2 / b_adapt=2 / b_bias=0 / direct=3 / weightb=1 / open_gop=0 / weightp=2 / keyint=250 / keyint_min=24 / scenecut=40 / intra_refresh=0 / rc_lookahead=250 / rc=crf / mbtree=0 / crf=16.8 / qcomp=0.60 / qpmin=0 / qpmax=69 / qpstep=4 / vbv_maxrate=62500 / vbv_bufsize=78125 / crf_max=0.0 / nal_hrd=none / filler=0 / ip_ratio=1.30 / pb_ratio=1.20 / aq=3:0.80
Language : English
Default : Yes
Forced : No
Color range : Limited
Color primaries : BT.709
Matrix coefficients : BT.709

Audio
ID : 2
Format : DTS
Format/Info : Digital Theater Systems
Codec ID : A_DTS
Duration : 1 h 57 min
Bit rate mode : Constant
Bit rate : 1 509 kb/s
Channel(s) : 6 channels
Channel layout : C L R Ls Rs LFE
Sampling rate : 48.0 kHz
Frame rate : 93.750 FPS (512 SPF)
Bit depth : 24 bits
Compression mode : Lossy
Stream size : 1.24 GiB (12%)
Language : English
Default : Yes
Forced : No

Text
ID : 3
Format : UTF-8
Codec ID : S_TEXT/UTF8
Codec ID/Info : UTF-8 Plain Text
Duration : 1 h 47 min
Bit rate : 20 b/s
Count of elements : 516
Stream size : 15.8 KiB (0%)
Title : SRT
Language : English
Default : Yes
Forced : No

Menu
00:00:00.000 : en:Chapter 01
00:10:00.266 : en:Chapter 02
00:20:00.199 : en:Chapter 03
00:30:01.508 : en:Chapter 04
00:40:02.483 : en:Chapter 05
00:50:03.459 : en:Chapter 06
01:00:04.017 : en:Chapter 07
01:10:05.701 : en:Chapter 08
01:20:05.384 : en:Chapter 09
01:30:09.112 : en:Chapter 10
01:40:05.208 : en:Chapter 11
01:50:06.767 : en:Chapter 12
01:52:34.873 : en:Chapter 13
Trailer