79
PUNTOS
Calificar
CALIFICA
Calificar
Califica y/o escribe un comentario sobre la película.
Comentarios en el foroFORO

All That Jazz (1979)

Joe Gideon (Roy Scheider) es un implacable coreógrafo en este musical poco convencional que retrata la dureza, el esplendor y la decadencia de las gentes del mundo del espectáculo, a quienes el triunfo les niega a veces la posibilidad de otros afectos. Un drama que retrata la otra cara del show, lo que ocurre entre bastidores.
Director Bob Fosse
Actores Roy Scheider, Jessica Lange, Ann Reinking, Leland Palmer
Duración 123 min
Streaming (Servicio externo)
Grupo: HD4U
Versión: BDRip x264 720p
Tamaño: 5.5 GB
General
Unique ID : 172681550900366206258679469739730264277 (0x81E941C8EE83BF00B93CEFE3FDC7E0D5)
Complete name : All.That.Jazz.1979.720p.BluRay.x264-HD4U.mkv
Format : Matroska
Format version : Version 4 / Version 2
File size : 5.46 GiB
Duration : 2h 3mn
Overall bit rate : 6 345 Kbps
Encoded date : UTC 2014-08-15 03:34:04
Writing application : mkvmerge v6.2.0 ('Promised Land') built on Apr 28 2013 12:22:01
Writing library : libebml v1.3.0 + libmatroska v1.4.0

Video
ID : 1
Format : AVC
Format/Info : Advanced Video Codec
Format profile : [email protected]
Format settings, CABAC : Yes
Format settings, ReFrames : 5 frames
Codec ID : V_MPEG4/ISO/AVC
Duration : 2h 3mn
Bit rate : 4 835 Kbps
Width : 1 280 pixels
Height : 688 pixels
Display aspect ratio : 1.85:1
Frame rate : 23.976 fps
Color space : YUV
Chroma subsampling : 4:2:0
Bit depth : 8 bits
Scan type : Progressive
Bits/(Pixel*Frame) : 0.229
Stream size : 4.05 GiB (74%)
Writing library : x264 core 142 r2431 ac76440
Encoding settings : cabac=1 / ref=5 / deblock=1:0:0 / analyse=0x3:0x133 / me=umh / subme=7 / psy=1 / psy_rd=1.00:0.00 / mixed_ref=1 / me_range=16 / chroma_me=1 / trellis=1 / 8x8dct=1 / cqm=0 / deadzone=21,11 / fast_pskip=0 / chroma_qp_offset=-2 / threads=18 / lookahead_threads=3 / sliced_threads=0 / nr=0 / decimate=1 / interlaced=0 / bluray_compat=0 / constrained_intra=0 / bframes=3 / b_pyramid=2 / b_adapt=1 / b_bias=0 / direct=1 / weightb=1 / open_gop=0 / weightp=2 / keyint=250 / keyint_min=23 / scenecut=40 / intra_refresh=0 / rc_lookahead=40 / rc=2pass / mbtree=1 / bitrate=4835 / ratetol=1.0 / qcomp=0.60 / qpmin=0 / qpmax=69 / qpstep=4 / cplxblur=20.0 / qblur=0.5 / ip_ratio=1.40 / aq=1:1.00
Language : English
Default : Yes
Forced : No

Audio
ID : 2
Format : DTS
Format/Info : Digital Theater Systems
Codec ID : A_DTS
Duration : 2h 3mn
Bit rate mode : Constant
Bit rate : 1 510 Kbps
Channel(s) : 3 channels
Channel positions : Front: L C R
Sampling rate : 48.0 KHz
Bit depth : 24 bits
Compression mode : Lossy
Stream size : 1.30 GiB (24%)
Language : English
Default : Yes
Forced : No

Menu
00:00:00.000 : en:00:00:00.000
00:01:58.493 : en:00:01:58.493
00:10:24.415 : en:00:10:24.415
00:14:45.259 : en:00:14:45.259
00:19:02.433 : en:00:19:02.433
00:22:50.661 : en:00:22:50.661
00:27:42.202 : en:00:27:42.202
00:32:14.808 : en:00:32:14.808
00:35:59.741 : en:00:35:59.741
00:38:46.449 : en:00:38:46.449
00:40:59.707 : en:00:40:59.707
00:45:20.426 : en:00:45:20.426
00:48:53.055 : en:00:48:53.055
00:55:50.097 : en:00:55:50.097
00:57:55.430 : en:00:57:55.430
01:03:15.000 : en:01:03:15.000
01:06:55.011 : en:01:06:55.011
01:11:35.750 : en:01:11:35.750
01:13:59.810 : en:01:13:59.810
01:18:56.148 : en:01:18:56.148
01:25:54.608 : en:01:25:54.608
01:29:23.441 : en:01:29:23.441
01:38:27.777 : en:01:38:27.777
01:42:11.959 : en:01:42:11.959
01:49:07.249 : en:01:49:07.249
02:00:26.469 : en:02:00:26.469

Subtitulos

Grupo: HD4U
Versión: BDRip x264 1080p
Tamaño: 8.7 GB
Video
ID : 1
Format : AVC
Format/Info : Advanced Video Codec
Format profile : [email protected]
Format settings : CABAC / 4 Ref Frames
Format settings, CABAC : Yes
Format settings, Reference frames : 4 frames
Codec ID : V_MPEG4/ISO/AVC
Duration : 2 h 3 min
Bit rate : 8 647 kb/s
Width : 1 920 pixels
Height : 1 040 pixels
Display aspect ratio : 1.85:1
Frame rate mode : Constant
Frame rate : 23.976 FPS
Color space : YUV
Chroma subsampling : 4:2:0
Bit depth : 8 bits
Scan type : Progressive
Bits/(Pixel*Frame) : 0.181
Stream size : 7.27 GiB (83%)
Writing library : x264 core 142 r2431 ac76440
Encoding settings : cabac=1 / ref=4 / deblock=1:0:0 / analyse=0x3:0x133 / me=umh / subme=7 / psy=1 / psy_rd=1.00:0.00 / mixed_ref=1 / me_range=16 / chroma_me=1 / trellis=1 / 8x8dct=1 / cqm=0 / deadzone=21,11 / fast_pskip=0 / chroma_qp_offset=-2 / threads=18 / lookahead_threads=3 / sliced_threads=0 / nr=0 / decimate=1 / interlaced=0 / bluray_compat=0 / constrained_intra=0 / bframes=3 / b_pyramid=2 / b_adapt=1 / b_bias=0 / direct=1 / weightb=1 / open_gop=0 / weightp=2 / keyint=250 / keyint_min=23 / scenecut=40 / intra_refresh=0 / rc_lookahead=40 / rc=2pass / mbtree=1 / bitrate=8647 / ratetol=1.0 / qcomp=0.60 / qpmin=0 / qpmax=69 / qpstep=4 / cplxblur=20.0 / qblur=0.5 / ip_ratio=1.40 / aq=1:1.00
Language : English
Default : Yes
Forced : No

Audio
ID : 2
Format : DTS
Format/Info : Digital Theater Systems
Codec ID : A_DTS
Duration : 2 h 3 min
Bit rate mode : Constant
Bit rate : 1 509 kb/s
Channel(s) : 3 channels
Channel layout : C L R
Sampling rate : 48.0 kHz
Frame rate : 93.750 FPS (512 SPF)
Bit depth : 24 bits
Compression mode : Lossy
Stream size : 1.30 GiB (15%)
Language : English
Default : Yes
Forced : No

Menu
00:00:00.000 : en:00:00:00.000
00:01:58.493 : en:00:01:58.493
00:10:24.415 : en:00:10:24.415
00:14:45.259 : en:00:14:45.259
00:19:02.433 : en:00:19:02.433
00:22:50.661 : en:00:22:50.661
00:27:42.202 : en:00:27:42.202
00:32:14.808 : en:00:32:14.808
00:35:59.741 : en:00:35:59.741
00:38:46.449 : en:00:38:46.449
00:40:59.707 : en:00:40:59.707
00:45:20.426 : en:00:45:20.426
00:48:53.055 : en:00:48:53.055
00:55:50.097 : en:00:55:50.097
00:57:55.430 : en:00:57:55.430
01:03:15.000 : en:01:03:15.000
01:06:55.011 : en:01:06:55.011
01:11:35.750 : en:01:11:35.750
01:13:59.810 : en:01:13:59.810
01:18:56.148 : en:01:18:56.148
01:25:54.608 : en:01:25:54.608
01:29:23.441 : en:01:29:23.441
01:38:27.777 : en:01:38:27.777
01:42:11.959 : en:01:42:11.959
01:49:07.249 : en:01:49:07.249
02:00:26.469 : en:02:00:26.469

Subtitulos

Trailer