82
PUNTOS
Calificar
CALIFICA
Calificar
Califica y/o escribe un comentario sobre la película.
Comentarios en el foroFORO

Raya and the Last Dragon (2021)

En el fantástico mundo de Kumandra, humanos y dragones vivieron juntos hace mucho tiempo en perfecta armonía. Pero cuando unas fuerzas del mal amenazaron el territorio, los dragones se sacrificaron para salvar a la humanidad. Ahora, 500 años después, esas mismas fuerzas malignas han regresado y Raya, una guerrera solitaria, tendrá que encontrar al último y legendario dragón para reconstruir un mundo destruido y volver a unir a su pueblo.
Director Don Hall, Carlos López Estrada, Paul Briggs, John Ripa
Actores Kelly Marie Tran, Awkwafina, Gemma Chan, Izaac Wang
Duración 114 min
Streaming (Servicio externo)
Grupo: TOMMY
Versión: WEBRip H264 1080p E-AC3
Tamaño: 5.6 GB
Video
ID : 1
Format : AVC
Format/Info : Advanced Video Codec
Format profile : [email protected]
Format settings : CABAC / 4 Ref Frames
Format settings, CABAC : Yes
Format settings, Reference frames : 4 frames
Codec ID : V_MPEG4/ISO/AVC
Duration : 1 h 47 min
Bit rate mode : Variable
Bit rate : 7 274 kb/s
Maximum bit rate : 12.7 Mb/s
Width : 1 920 pixels
Height : 1 080 pixels
Display aspect ratio : 16:9
Frame rate mode : Constant
Frame rate : 23.976 (24000/1001) FPS
Color space : YUV
Chroma subsampling : 4:2:0
Bit depth : 8 bits
Scan type : Progressive
Bits/(Pixel*Frame) : 0.146
Stream size : 5.46 GiB (97%)
Default : Yes
Forced : No
Color range : Limited
Color primaries : BT.709
Transfer characteristics : BT.709
Matrix coefficients : BT.709

Audio
ID : 2
Format : E-AC-3
Format/Info : Enhanced AC-3
Commercial name : Dolby Digital Plus
Codec ID : A_EAC3
Duration : 1 h 47 min
Bit rate mode : Constant
Bit rate : 256 kb/s
Channel(s) : 6 channels
Channel layout : L R C LFE Ls Rs
Sampling rate : 48.0 kHz
Frame rate : 31.250 FPS (1536 SPF)
Compression mode : Lossy
Stream size : 197 MiB (3%)
Title : English
Language : English
Service kind : Complete Main
Default : Yes
Forced : No

Subtitulos

Grupo: TOMMY
Versión: WEBRip H264 720p E-AC3
Tamaño: 2.9 Gb
Video
ID : 1
Format : AVC
Format/Info : Advanced Video Codec
Format profile : [email protected]
Format settings : CABAC / 4 Ref Frames
Format settings, CABAC : Yes
Format settings, Reference frames : 4 frames
Codec ID : V_MPEG4/ISO/AVC
Duration : 1 h 47 min
Bit rate mode : Variable
Bit rate : 3 556 kb/s
Maximum bit rate : 6 375 kb/s
Width : 1 280 pixels
Height : 720 pixels
Display aspect ratio : 16:9
Frame rate mode : Constant
Frame rate : 23.976 (24000/1001) FPS
Color space : YUV
Chroma subsampling : 4:2:0
Bit depth : 8 bits
Scan type : Progressive
Bits/(Pixel*Frame) : 0.161
Stream size : 2.67 GiB (93%)
Default : Yes
Forced : No
Color range : Limited
Color primaries : BT.709
Transfer characteristics : BT.709
Matrix coefficients : BT.709

Audio
ID : 2
Format : E-AC-3
Format/Info : Enhanced AC-3
Commercial name : Dolby Digital Plus
Codec ID : A_EAC3
Duration : 1 h 47 min
Bit rate mode : Constant
Bit rate : 256 kb/s
Channel(s) : 6 channels
Channel layout : L R C LFE Ls Rs
Sampling rate : 48.0 kHz
Frame rate : 31.250 FPS (1536 SPF)
Compression mode : Lossy
Stream size : 197 MiB (7%)
Title : English
Language : English
Service kind : Complete Main
Default : Yes
Forced : No

Subtitulos

Trailer